<?xml version="1.0" standalone="no"?>
<!DOCTYPE svg PUBLIC "-//W3C//DTD SVG 1.1//EN" "http://www.w3.org/Graphics/SVG/1.1/DTD/svg11.dtd" >
<svg xmlns="http://www.w3.org/2000/svg">
<metadata>Generated by IcoMoon</metadata>
<defs>
<font id="feather" horiz-adv-x="1024">
<font-face units-per-em="1024" ascent="960" descent="-64" />
<missing-glyph horiz-adv-x="1024" />
<glyph unicode="&#x20;" horiz-adv-x="512" d="" />
<glyph unicode="&#xe900;" glyph-name="activity" d="M640 21.333c-17.067 0-34.133 12.8-38.4 29.867l-217.6 644.267-89.6-264.533c-4.267-12.8-21.333-25.6-38.4-25.6h-170.667c-25.6 0-42.667 17.067-42.667 42.667s17.067 42.667 42.667 42.667h140.8l119.467 354.133c4.267 17.067 21.333 29.867 38.4 29.867s34.133-12.8 38.4-29.867l217.6-644.267 89.6 264.533c4.267 17.067 21.333 29.867 38.4 29.867h170.667c25.6 0 42.667-17.067 42.667-42.667s-17.067-42.667-42.667-42.667h-140.8l-119.467-354.133c-4.267-21.333-21.333-34.133-38.4-34.133z" />
<glyph unicode="&#xe901;" glyph-name="airplay" d="M853.333 192h-42.667c-25.6 0-42.667 17.067-42.667 42.667s17.067 42.667 42.667 42.667h42.667c25.6 0 42.667 17.067 42.667 42.667v426.667c0 25.6-17.067 42.667-42.667 42.667h-682.667c-25.6 0-42.667-17.067-42.667-42.667v-426.667c0-25.6 17.067-42.667 42.667-42.667h42.667c25.6 0 42.667-17.067 42.667-42.667s-17.067-42.667-42.667-42.667h-42.667c-72.533 0-128 55.467-128 128v426.667c0 72.533 55.467 128 128 128h682.667c72.533 0 128-55.467 128-128v-426.667c0-72.533-55.467-128-128-128zM725.333 21.333h-426.667c-17.067 0-29.867 8.533-38.4 25.6s-4.267 34.133 4.267 46.933l213.333 256c17.067 21.333 51.2 21.333 64 0l213.333-256c8.533-12.8 12.8-29.867 4.267-46.933-4.267-17.067-17.067-25.6-34.133-25.6zM388.267 106.667h243.2l-119.467 145.067-123.733-145.067z" />
<glyph unicode="&#xe902;" glyph-name="alert-circle" d="M512-21.333c-260.267 0-469.333 209.067-469.333 469.333s209.067 469.333 469.333 469.333 469.333-209.067 469.333-469.333-209.067-469.333-469.333-469.333zM512 832c-213.333 0-384-170.667-384-384s170.667-384 384-384c213.333 0 384 170.667 384 384s-170.667 384-384 384zM512 405.333c-25.6 0-42.667 17.067-42.667 42.667v170.667c0 25.6 17.067 42.667 42.667 42.667s42.667-17.067 42.667-42.667v-170.667c0-25.6-17.067-42.667-42.667-42.667zM512 234.667c-4.267 0-12.8 0-17.067 4.267-4.267 0-8.533 4.267-12.8 8.533-8.533 8.533-12.8 17.067-12.8 29.867 0 4.267 0 12.8 4.267 17.067s4.267 8.533 8.533 12.8c4.267 4.267 8.533 8.533 12.8 8.533 8.533 4.267 21.333 4.267 34.133 0 4.267 0 8.533-4.267 12.8-8.533s8.533-8.533 8.533-12.8c0-4.267 4.267-8.533 4.267-17.067 0-12.8-4.267-21.333-12.8-29.867s-17.067-12.8-29.867-12.8z" />
<glyph unicode="&#xe903;" glyph-name="alert-octagon" d="M686.933-21.333h-349.867c-12.8 0-21.333 4.267-29.867 12.8l-251.733 251.733c-8.533 4.267-12.8 17.067-12.8 29.867v349.867c0 12.8 4.267 21.333 12.8 29.867l251.733 251.733c4.267 8.533 17.067 12.8 29.867 12.8h354.133c12.8 0 21.333-4.267 29.867-12.8l251.733-251.733c4.267-4.267 8.533-17.067 8.533-29.867v-354.133c0-12.8-4.267-21.333-12.8-29.867l-251.733-251.733c-4.267-4.267-17.067-8.533-29.867-8.533zM354.133 64h320l226.133 226.133v315.733l-230.4 226.133h-315.733l-226.133-226.133v-320l226.133-221.867zM512 405.333c-25.6 0-42.667 17.067-42.667 42.667v170.667c0 25.6 17.067 42.667 42.667 42.667s42.667-17.067 42.667-42.667v-170.667c0-25.6-17.067-42.667-42.667-42.667zM512 234.667c-4.267 0-12.8 0-17.067 4.267-4.267 0-8.533 4.267-12.8 8.533-8.533 8.533-12.8 17.067-12.8 29.867 0 4.267 0 12.8 4.267 17.067s4.267 8.533 8.533 12.8c4.267 4.267 8.533 8.533 12.8 8.533 8.533 4.267 21.333 4.267 34.133 0 4.267 0 8.533-4.267 12.8-8.533s8.533-8.533 8.533-12.8c0-4.267 4.267-8.533 4.267-17.067 0-12.8-4.267-21.333-12.8-29.867s-17.067-12.8-29.867-12.8z" />
<glyph unicode="&#xe904;" glyph-name="alert-triangle" d="M149.333 21.333c-21.333 0-42.667 4.267-64 17.067-59.733 34.133-81.067 115.2-46.933 174.933l362.667 605.867c0 0 0 0 0 0 8.533 17.067 25.6 34.133 42.667 42.667 29.867 17.067 64 21.333 98.133 12.8s59.733-29.867 81.067-59.733l358.4-601.6c12.8-21.333 17.067-42.667 17.067-64 0-34.133-12.8-68.267-38.4-89.6-21.333-25.6-51.2-38.4-85.333-38.4h-725.333zM473.6 772.267l-358.4-601.6c-12.8-21.333-4.267-46.933 17.067-59.733 4.267-4.267 12.8-4.267 17.067-4.267h721.067c12.8 0 21.333 4.267 29.867 12.8s12.8 17.067 12.8 29.867c0 8.533 0 12.8-4.267 21.333l-358.4 601.6c-12.8 21.333-38.4 25.6-59.733 17.067-8.533-4.267-12.8-8.533-17.067-17.067zM512 362.667c-25.6 0-42.667 17.067-42.667 42.667v170.667c0 25.6 17.067 42.667 42.667 42.667s42.667-17.067 42.667-42.667v-170.667c0-25.6-17.067-42.667-42.667-42.667zM512 192c-12.8 0-21.333 4.267-29.867 12.8s-12.8 17.067-12.8 29.867c0 4.267 0 12.8 4.267 17.067s4.267 8.533 8.533 12.8c17.067 17.067 42.667 17.067 59.733 0 4.267-4.267 8.533-8.533 8.533-12.8s4.267-8.533 4.267-17.067 0-12.8-4.267-17.067c-4.267-4.267-4.267-8.533-8.533-12.8-8.533-8.533-17.067-12.8-29.867-12.8z" />
<glyph unicode="&#xe905;" glyph-name="align-center" d="M768 490.667h-512c-25.6 0-42.667 17.067-42.667 42.667s17.067 42.667 42.667 42.667h512c25.6 0 42.667-17.067 42.667-42.667s-17.067-42.667-42.667-42.667zM896 661.333h-768c-25.6 0-42.667 17.067-42.667 42.667s17.067 42.667 42.667 42.667h768c25.6 0 42.667-17.067 42.667-42.667s-17.067-42.667-42.667-42.667zM896 320h-768c-25.6 0-42.667 17.067-42.667 42.667s17.067 42.667 42.667 42.667h768c25.6 0 42.667-17.067 42.667-42.667s-17.067-42.667-42.667-42.667zM768 149.333h-512c-25.6 0-42.667 17.067-42.667 42.667s17.067 42.667 42.667 42.667h512c25.6 0 42.667-17.067 42.667-42.667s-17.067-42.667-42.667-42.667z" />
<glyph unicode="&#xe906;" glyph-name="align-justify" d="M896 490.667h-768c-25.6 0-42.667 17.067-42.667 42.667s17.067 42.667 42.667 42.667h768c25.6 0 42.667-17.067 42.667-42.667s-17.067-42.667-42.667-42.667zM896 661.333h-768c-25.6 0-42.667 17.067-42.667 42.667s17.067 42.667 42.667 42.667h768c25.6 0 42.667-17.067 42.667-42.667s-17.067-42.667-42.667-42.667zM896 320h-768c-25.6 0-42.667 17.067-42.667 42.667s17.067 42.667 42.667 42.667h768c25.6 0 42.667-17.067 42.667-42.667s-17.067-42.667-42.667-42.667zM896 149.333h-768c-25.6 0-42.667 17.067-42.667 42.667s17.067 42.667 42.667 42.667h768c25.6 0 42.667-17.067 42.667-42.667s-17.067-42.667-42.667-42.667z" />
<glyph unicode="&#xe907;" glyph-name="align-left" d="M725.333 490.667h-597.333c-25.6 0-42.667 17.067-42.667 42.667s17.067 42.667 42.667 42.667h597.333c25.6 0 42.667-17.067 42.667-42.667s-17.067-42.667-42.667-42.667zM896 661.333h-768c-25.6 0-42.667 17.067-42.667 42.667s17.067 42.667 42.667 42.667h768c25.6 0 42.667-17.067 42.667-42.667s-17.067-42.667-42.667-42.667zM896 320h-768c-25.6 0-42.667 17.067-42.667 42.667s17.067 42.667 42.667 42.667h768c25.6 0 42.667-17.067 42.667-42.667s-17.067-42.667-42.667-42.667zM725.333 149.333h-597.333c-25.6 0-42.667 17.067-42.667 42.667s17.067 42.667 42.667 42.667h597.333c25.6 0 42.667-17.067 42.667-42.667s-17.067-42.667-42.667-42.667z" />
<glyph unicode="&#xe908;" glyph-name="align-right" d="M896 490.667h-597.333c-25.6 0-42.667 17.067-42.667 42.667s17.067 42.667 42.667 42.667h597.333c25.6 0 42.667-17.067 42.667-42.667s-17.067-42.667-42.667-42.667zM896 661.333h-768c-25.6 0-42.667 17.067-42.667 42.667s17.067 42.667 42.667 42.667h768c25.6 0 42.667-17.067 42.667-42.667s-17.067-42.667-42.667-42.667zM896 320h-768c-25.6 0-42.667 17.067-42.667 42.667s17.067 42.667 42.667 42.667h768c25.6 0 42.667-17.067 42.667-42.667s-17.067-42.667-42.667-42.667zM896 149.333h-597.333c-25.6 0-42.667 17.067-42.667 42.667s17.067 42.667 42.667 42.667h597.333c25.6 0 42.667-17.067 42.667-42.667s-17.067-42.667-42.667-42.667z" />
<glyph unicode="&#xe909;" glyph-name="anchor" d="M512 576c-93.867 0-170.667 76.8-170.667 170.667s76.8 170.667 170.667 170.667c93.867 0 170.667-76.8 170.667-170.667s-76.8-170.667-170.667-170.667zM512 832c-46.933 0-85.333-38.4-85.333-85.333s38.4-85.333 85.333-85.333c46.933 0 85.333 38.4 85.333 85.333s-38.4 85.333-85.333 85.333zM512-21.333c-25.6 0-42.667 17.067-42.667 42.667v597.333c0 25.6 17.067 42.667 42.667 42.667s42.667-17.067 42.667-42.667v-597.333c0-25.6-17.067-42.667-42.667-42.667zM512-21.333c-260.267 0-469.333 209.067-469.333 469.333 0 25.6 17.067 42.667 42.667 42.667h128c25.6 0 42.667-17.067 42.667-42.667s-17.067-42.667-42.667-42.667h-81.067c21.333-192 183.467-341.333 379.733-341.333s358.4 149.333 379.733 341.333h-81.067c-25.6 0-42.667 17.067-42.667 42.667s17.067 42.667 42.667 42.667h128c25.6 0 42.667-17.067 42.667-42.667 0-260.267-209.067-469.333-469.333-469.333z" />
<glyph unicode="&#xe90a;" glyph-name="aperture" d="M512-21.333c-260.267 0-469.333 209.067-469.333 469.333s209.067 469.333 469.333 469.333 469.333-209.067 469.333-469.333-209.067-469.333-469.333-469.333zM512 832c-213.333 0-384-170.667-384-384s170.667-384 384-384c213.333 0 384 170.667 384 384s-170.667 384-384 384zM857.6 153.6c-12.8 0-29.867 8.533-38.4 21.333l-243.2 422.4c-12.8 21.333-4.267 46.933 17.067 59.733s46.933 4.267 59.733-17.067l243.2-422.4c12.8-21.333 4.267-46.933-17.067-59.733-8.533-4.267-17.067-4.267-21.333-4.267zM904.533 576h-490.667c-25.6 0-42.667 17.067-42.667 42.667s17.067 42.667 42.667 42.667h490.667c25.6 0 42.667-17.067 42.667-42.667s-21.333-42.667-42.667-42.667zM315.733 405.333c-8.533 0-12.8 0-21.333 4.267-21.333 12.8-25.6 38.4-17.067 59.733l243.2 422.4c12.8 21.333 38.4 25.6 59.733 17.067 21.333-12.8 25.6-38.4 17.067-59.733l-243.2-422.4c-8.533-12.8-25.6-21.333-38.4-21.333zM413.867 234.667c-12.8 0-29.867 8.533-38.4 21.333l-243.2 422.4c-12.8 21.333-4.267 46.933 17.067 59.733s46.933 4.267 59.733-17.067l243.2-422.4c12.8-21.333 4.267-46.933-17.067-59.733-8.533-4.267-12.8-4.267-21.333-4.267zM610.133 234.667h-490.667c-25.6 0-42.667 17.067-42.667 42.667s17.067 42.667 42.667 42.667h490.667c25.6 0 42.667-17.067 42.667-42.667s-17.067-42.667-42.667-42.667zM465.067-17.067c-8.533 0-12.8 0-21.333 4.267-21.333 12.8-25.6 38.4-17.067 59.733l243.2 422.4c12.8 21.333 38.4 25.6 59.733 17.067 21.333-12.8 25.6-38.4 17.067-59.733l-243.2-422.4c-8.533-17.067-25.6-21.333-38.4-21.333z" />
<glyph unicode="&#xe90b;" glyph-name="archive" d="M896 21.333h-768c-25.6 0-42.667 17.067-42.667 42.667v554.667c0 25.6 17.067 42.667 42.667 42.667s42.667-17.067 42.667-42.667v-512h682.667v512c0 25.6 17.067 42.667 42.667 42.667s42.667-17.067 42.667-42.667v-554.667c0-25.6-17.067-42.667-42.667-42.667zM981.333 576h-938.667c-25.6 0-42.667 17.067-42.667 42.667v213.333c0 25.6 17.067 42.667 42.667 42.667h938.667c25.6 0 42.667-17.067 42.667-42.667v-213.333c0-25.6-17.067-42.667-42.667-42.667zM85.333 661.333h853.333v128h-853.333v-128zM597.333 405.333h-170.667c-25.6 0-42.667 17.067-42.667 42.667s17.067 42.667 42.667 42.667h170.667c25.6 0 42.667-17.067 42.667-42.667s-17.067-42.667-42.667-42.667z" />
<glyph unicode="&#xe90c;" glyph-name="arrow-down-circle" d="M512-21.333c-260.267 0-469.333 209.067-469.333 469.333s209.067 469.333 469.333 469.333 469.333-209.067 469.333-469.333-209.067-469.333-469.333-469.333zM512 832c-213.333 0-384-170.667-384-384s170.667-384 384-384c213.333 0 384 170.667 384 384s-170.667 384-384 384zM512 234.667c-12.8 0-21.333 4.267-29.867 12.8l-170.667 170.667c-17.067 17.067-17.067 42.667 0 59.733s42.667 17.067 59.733 0l140.8-140.8 140.8 140.8c17.067 17.067 42.667 17.067 59.733 0s17.067-42.667 0-59.733l-170.667-170.667c-8.533-8.533-17.067-12.8-29.867-12.8zM512 234.667c-25.6 0-42.667 17.067-42.667 42.667v341.333c0 25.6 17.067 42.667 42.667 42.667s42.667-17.067 42.667-42.667v-341.333c0-25.6-17.067-42.667-42.667-42.667z" />
<glyph unicode="&#xe90d;" glyph-name="arrow-down-left" d="M298.667 192c-12.8 0-21.333 4.267-29.867 12.8-17.067 17.067-17.067 42.667 0 59.733l426.667 426.667c17.067 17.067 42.667 17.067 59.733 0s17.067-42.667 0-59.733l-426.667-426.667c-8.533-8.533-17.067-12.8-29.867-12.8zM725.333 192h-426.667c-25.6 0-42.667 17.067-42.667 42.667v426.667c0 25.6 17.067 42.667 42.667 42.667s42.667-17.067 42.667-42.667v-384h384c25.6 0 42.667-17.067 42.667-42.667s-17.067-42.667-42.667-42.667z" />
<glyph unicode="&#xe90e;" glyph-name="arrow-down-right" d="M725.333 192c-12.8 0-21.333 4.267-29.867 12.8l-426.667 426.667c-17.067 17.067-17.067 42.667 0 59.733s42.667 17.067 59.733 0l426.667-426.667c17.067-17.067 17.067-42.667 0-59.733-8.533-8.533-17.067-12.8-29.867-12.8zM725.333 192h-426.667c-25.6 0-42.667 17.067-42.667 42.667s17.067 42.667 42.667 42.667h384v384c0 25.6 17.067 42.667 42.667 42.667s42.667-17.067 42.667-42.667v-426.667c0-25.6-17.067-42.667-42.667-42.667z" />
<glyph unicode="&#xe90f;" glyph-name="arrow-down" d="M512 106.667c-25.6 0-42.667 17.067-42.667 42.667v597.333c0 25.6 17.067 42.667 42.667 42.667s42.667-17.067 42.667-42.667v-597.333c0-25.6-17.067-42.667-42.667-42.667zM512 106.667c-12.8 0-21.333 4.267-29.867 12.8l-298.667 298.667c-17.067 17.067-17.067 42.667 0 59.733s42.667 17.067 59.733 0l268.8-268.8 268.8 268.8c17.067 17.067 42.667 17.067 59.733 0s17.067-42.667 0-59.733l-298.667-298.667c-8.533-8.533-17.067-12.8-29.867-12.8z" />
<glyph unicode="&#xe910;" glyph-name="arrow-left-circle" d="M512-21.333c-260.267 0-469.333 209.067-469.333 469.333s209.067 469.333 469.333 469.333 469.333-209.067 469.333-469.333-209.067-469.333-469.333-469.333zM512 832c-213.333 0-384-170.667-384-384s170.667-384 384-384c213.333 0 384 170.667 384 384s-170.667 384-384 384zM512 234.667c-12.8 0-21.333 4.267-29.867 12.8l-170.667 170.667c-17.067 17.067-17.067 42.667 0 59.733l170.667 170.667c17.067 17.067 42.667 17.067 59.733 0s17.067-42.667 0-59.733l-140.8-140.8 140.8-140.8c17.067-17.067 17.067-42.667 0-59.733-8.533-8.533-17.067-12.8-29.867-12.8zM682.667 405.333h-341.333c-25.6 0-42.667 17.067-42.667 42.667s17.067 42.667 42.667 42.667h341.333c25.6 0 42.667-17.067 42.667-42.667s-17.067-42.667-42.667-42.667z" />
<glyph unicode="&#xe911;" glyph-name="arrow-left" d="M810.667 405.333h-597.333c-25.6 0-42.667 17.067-42.667 42.667s17.067 42.667 42.667 42.667h597.333c25.6 0 42.667-17.067 42.667-42.667s-17.067-42.667-42.667-42.667zM512 106.667c-12.8 0-21.333 4.267-29.867 12.8l-298.667 298.667c-17.067 17.067-17.067 42.667 0 59.733l298.667 298.667c17.067 17.067 42.667 17.067 59.733 0s17.067-42.667 0-59.733l-268.8-268.8 268.8-268.8c17.067-17.067 17.067-42.667 0-59.733-8.533-8.533-17.067-12.8-29.867-12.8z" />
<glyph unicode="&#xe912;" glyph-name="arrow-right-circle" d="M512-21.333c-260.267 0-469.333 209.067-469.333 469.333s209.067 469.333 469.333 469.333 469.333-209.067 469.333-469.333-209.067-469.333-469.333-469.333zM512 832c-213.333 0-384-170.667-384-384s170.667-384 384-384c213.333 0 384 170.667 384 384s-170.667 384-384 384zM512 234.667c-12.8 0-21.333 4.267-29.867 12.8-17.067 17.067-17.067 42.667 0 59.733l140.8 140.8-140.8 140.8c-17.067 17.067-17.067 42.667 0 59.733s42.667 17.067 59.733 0l170.667-170.667c17.067-17.067 17.067-42.667 0-59.733l-170.667-170.667c-8.533-8.533-17.067-12.8-29.867-12.8zM682.667 405.333h-341.333c-25.6 0-42.667 17.067-42.667 42.667s17.067 42.667 42.667 42.667h341.333c25.6 0 42.667-17.067 42.667-42.667s-17.067-42.667-42.667-42.667z" />
<glyph unicode="&#xe913;" glyph-name="arrow-right" d="M810.667 405.333h-597.333c-25.6 0-42.667 17.067-42.667 42.667s17.067 42.667 42.667 42.667h597.333c25.6 0 42.667-17.067 42.667-42.667s-17.067-42.667-42.667-42.667zM512 106.667c-12.8 0-21.333 4.267-29.867 12.8-17.067 17.067-17.067 42.667 0 59.733l268.8 268.8-268.8 268.8c-17.067 17.067-17.067 42.667 0 59.733s42.667 17.067 59.733 0l298.667-298.667c17.067-17.067 17.067-42.667 0-59.733l-298.667-298.667c-8.533-8.533-17.067-12.8-29.867-12.8z" />
<glyph unicode="&#xe914;" glyph-name="arrow-up-circle" d="M512-21.333c-260.267 0-469.333 209.067-469.333 469.333s209.067 469.333 469.333 469.333 469.333-209.067 469.333-469.333-209.067-469.333-469.333-469.333zM512 832c-213.333 0-384-170.667-384-384s170.667-384 384-384c213.333 0 384 170.667 384 384s-170.667 384-384 384zM682.667 405.333c-12.8 0-21.333 4.267-29.867 12.8l-140.8 140.8-140.8-140.8c-17.067-17.067-42.667-17.067-59.733 0s-17.067 42.667 0 59.733l170.667 170.667c17.067 17.067 42.667 17.067 59.733 0l170.667-170.667c17.067-17.067 17.067-42.667 0-59.733-8.533-8.533-17.067-12.8-29.867-12.8zM512 234.667c-25.6 0-42.667 17.067-42.667 42.667v341.333c0 25.6 17.067 42.667 42.667 42.667s42.667-17.067 42.667-42.667v-341.333c0-25.6-17.067-42.667-42.667-42.667z" />
<glyph unicode="&#xe915;" glyph-name="arrow-up-left" d="M725.333 192c-12.8 0-21.333 4.267-29.867 12.8l-426.667 426.667c-17.067 17.067-17.067 42.667 0 59.733s42.667 17.067 59.733 0l426.667-426.667c17.067-17.067 17.067-42.667 0-59.733-8.533-8.533-17.067-12.8-29.867-12.8zM298.667 192c-25.6 0-42.667 17.067-42.667 42.667v426.667c0 25.6 17.067 42.667 42.667 42.667h426.667c25.6 0 42.667-17.067 42.667-42.667s-17.067-42.667-42.667-42.667h-384v-384c0-25.6-17.067-42.667-42.667-42.667z" />
<glyph unicode="&#xe916;" glyph-name="arrow-up-right" d="M298.667 192c-12.8 0-21.333 4.267-29.867 12.8-17.067 17.067-17.067 42.667 0 59.733l426.667 426.667c17.067 17.067 42.667 17.067 59.733 0s17.067-42.667 0-59.733l-426.667-426.667c-8.533-8.533-17.067-12.8-29.867-12.8zM725.333 192c-25.6 0-42.667 17.067-42.667 42.667v384h-384c-25.6 0-42.667 17.067-42.667 42.667s17.067 42.667 42.667 42.667h426.667c25.6 0 42.667-17.067 42.667-42.667v-426.667c0-25.6-17.067-42.667-42.667-42.667z" />
<glyph unicode="&#xe917;" glyph-name="arrow-up" d="M512 106.667c-25.6 0-42.667 17.067-42.667 42.667v597.333c0 25.6 17.067 42.667 42.667 42.667s42.667-17.067 42.667-42.667v-597.333c0-25.6-17.067-42.667-42.667-42.667zM810.667 405.333c-12.8 0-21.333 4.267-29.867 12.8l-268.8 268.8-268.8-268.8c-17.067-17.067-42.667-17.067-59.733 0s-17.067 42.667 0 59.733l298.667 298.667c17.067 17.067 42.667 17.067 59.733 0l298.667-298.667c17.067-17.067 17.067-42.667 0-59.733-8.533-8.533-17.067-12.8-29.867-12.8z" />
<glyph unicode="&#xe918;" glyph-name="at-sign" d="M512 234.667c-119.467 0-213.333 93.867-213.333 213.333s93.867 213.333 213.333 213.333 213.333-93.867 213.333-213.333-93.867-213.333-213.333-213.333zM512 576c-72.533 0-128-55.467-128-128s55.467-128 128-128 128 55.467 128 128-55.467 128-128 128zM512-21.333c-260.267 0-469.333 209.067-469.333 469.333 0 123.733 46.933 243.2 136.533 332.8s209.067 136.533 332.8 136.533c260.267 0 469.333-209.067 469.333-469.333v-42.667c0-93.867-76.8-170.667-170.667-170.667s-170.667 76.8-170.667 170.667v213.333c0 25.6 17.067 42.667 42.667 42.667s42.667-17.067 42.667-42.667v-213.333c0-46.933 38.4-85.333 85.333-85.333s85.333 38.4 85.333 85.333v42.667c0 213.333-170.667 384-384 384-102.4 0-200.533-38.4-273.067-110.933s-110.933-170.667-110.933-273.067c0-213.333 170.667-384 384-384 85.333 0 166.4 29.867 234.667 81.067 17.067 12.8 46.933 12.8 59.733-8.533 12.8-17.067 12.8-46.933-8.533-59.733-81.067-64-183.467-98.133-285.867-98.133z" />
<glyph unicode="&#xe919;" glyph-name="award" d="M512 277.333c-187.733 0-341.333 153.6-341.333 341.333s153.6 341.333 341.333 341.333 341.333-153.6 341.333-341.333-153.6-341.333-341.333-341.333zM512 874.667c-140.8 0-256-115.2-256-256s115.2-256 256-256 256 115.2 256 256-115.2 256-256 256zM725.333-64c-8.533 0-17.067 0-21.333 4.267l-192 115.2-192-115.2c-12.8-8.533-29.867-8.533-46.933 0-12.8 8.533-21.333 25.6-17.067 42.667l51.2 388.267c4.267 21.333 25.6 38.4 46.933 38.4 25.6-4.267 42.667-25.6 38.4-46.933l-38.4-302.933 136.533 81.067c12.8 8.533 29.867 8.533 42.667 0l136.533-81.067-38.4 302.933c-4.267 21.333 12.8 46.933 38.4 46.933 25.6 4.267 46.933-12.8 46.933-38.4l51.2-388.267c4.267-17.067-4.267-34.133-17.067-42.667-8.533 0-17.067-4.267-25.6-4.267z" />
<glyph unicode="&#xe91a;" glyph-name="bar-chart-2" d="M768 64c-25.6 0-42.667 17.067-42.667 42.667v426.667c0 25.6 17.067 42.667 42.667 42.667s42.667-17.067 42.667-42.667v-426.667c0-25.6-17.067-42.667-42.667-42.667zM512 64c-25.6 0-42.667 17.067-42.667 42.667v682.667c0 25.6 17.067 42.667 42.667 42.667s42.667-17.067 42.667-42.667v-682.667c0-25.6-17.067-42.667-42.667-42.667zM256 64c-25.6 0-42.667 17.067-42.667 42.667v256c0 25.6 17.067 42.667 42.667 42.667s42.667-17.067 42.667-42.667v-256c0-25.6-17.067-42.667-42.667-42.667z" />
<glyph unicode="&#xe91b;" glyph-name="bar-chart" d="M512 64c-25.6 0-42.667 17.067-42.667 42.667v426.667c0 25.6 17.067 42.667 42.667 42.667s42.667-17.067 42.667-42.667v-426.667c0-25.6-17.067-42.667-42.667-42.667zM768 64c-25.6 0-42.667 17.067-42.667 42.667v682.667c0 25.6 17.067 42.667 42.667 42.667s42.667-17.067 42.667-42.667v-682.667c0-25.6-17.067-42.667-42.667-42.667zM256 64c-25.6 0-42.667 17.067-42.667 42.667v170.667c0 25.6 17.067 42.667 42.667 42.667s42.667-17.067 42.667-42.667v-170.667c0-25.6-17.067-42.667-42.667-42.667z" />
<glyph unicode="&#xe91c;" glyph-name="battery-charging" d="M725.333 149.333h-136.533c-25.6 0-42.667 17.067-42.667 42.667s17.067 42.667 42.667 42.667h136.533c25.6 0 42.667 17.067 42.667 42.667v341.333c0 25.6-17.067 42.667-42.667 42.667h-85.333c-25.6 0-42.667 17.067-42.667 42.667s17.067 42.667 42.667 42.667h85.333c72.533 0 128-55.467 128-128v-341.333c0-72.533-55.467-128-128-128zM213.333 149.333h-85.333c-72.533 0-128 55.467-128 128v341.333c0 72.533 55.467 128 128 128h136.533c25.6 0 42.667-17.067 42.667-42.667s-17.067-42.667-42.667-42.667h-136.533c-25.6 0-42.667-17.067-42.667-42.667v-341.333c0-25.6 17.067-42.667 42.667-42.667h85.333c25.6 0 42.667-17.067 42.667-42.667s-17.067-42.667-42.667-42.667zM981.333 362.667c-25.6 0-42.667 17.067-42.667 42.667v85.333c0 25.6 17.067 42.667 42.667 42.667s42.667-17.067 42.667-42.667v-85.333c0-25.6-17.067-42.667-42.667-42.667zM384 149.333c-8.533 0-17.067 4.267-25.6 8.533-21.333 12.8-25.6 38.4-12.8 59.733l128 187.733h-174.933c-17.067 0-29.867 8.533-38.4 21.333s-8.533 29.867 0 42.667l170.667 256c12.8 21.333 38.4 25.6 59.733 12.8s25.6-38.4 12.8-59.733l-128-187.733h179.2c17.067 0 29.867-8.533 38.4-21.333s8.533-29.867 0-42.667l-170.667-256c-12.8-12.8-25.6-21.333-38.4-21.333z" />
<glyph unicode="&#xe91d;" glyph-name="battery" d="M725.333 149.333h-597.333c-72.533 0-128 55.467-128 128v341.333c0 72.533 55.467 128 128 128h597.333c72.533 0 128-55.467 128-128v-341.333c0-72.533-55.467-128-128-128zM128 661.333c-25.6 0-42.667-17.067-42.667-42.667v-341.333c0-25.6 17.067-42.667 42.667-42.667h597.333c25.6 0 42.667 17.067 42.667 42.667v341.333c0 25.6-17.067 42.667-42.667 42.667h-597.333zM981.333 362.667c-25.6 0-42.667 17.067-42.667 42.667v85.333c0 25.6 17.067 42.667 42.667 42.667s42.667-17.067 42.667-42.667v-85.333c0-25.6-17.067-42.667-42.667-42.667z" />
<glyph unicode="&#xe91e;" glyph-name="bell-off" d="M512-21.333c-21.333 0-42.667 4.267-64 17.067s-34.133 25.6-46.933 46.933c-12.8 21.333-4.267 46.933 17.067 59.733s46.933 4.267 59.733-17.067c4.267-4.267 8.533-12.8 17.067-17.067 21.333-12.8 46.933-4.267 59.733 17.067s38.4 25.6 59.733 17.067c21.333-12.8 25.6-38.4 17.067-59.733-34.133-42.667-76.8-64-119.467-64zM725.333 192h-640c-25.6 0-42.667 17.067-42.667 42.667s17.067 42.667 42.667 42.667c46.933 0 85.333 38.4 85.333 85.333v213.333c0 55.467 12.8 106.667 38.4 157.867 12.8 21.333 38.4 29.867 55.467 17.067 21.333-12.8 29.867-38.4 17.067-55.467-17.067-38.4-25.6-76.8-25.6-119.467v-213.333c0-29.867-8.533-59.733-21.333-85.333h490.667c25.6 0 42.667-17.067 42.667-42.667s-17.067-42.667-42.667-42.667zM810.667 362.667c-25.6 0-42.667 17.067-42.667 42.667v170.667c0 42.667-12.8 89.6-34.133 128-68.267 123.733-226.133 166.4-349.867 98.133-17.067-12.8-42.667-8.533-55.467 12.8s-4.267 46.933 17.067 59.733c162.133 93.867 371.2 34.133 465.067-128 29.867-51.2 42.667-110.933 42.667-166.4v-170.667c0-29.867-17.067-46.933-42.667-46.933zM981.333-64c-12.8 0-21.333 4.267-29.867 12.8l-938.667 938.667c-17.067 17.067-17.067 42.667 0 59.733s42.667 17.067 59.733 0l938.667-938.667c17.067-17.067 17.067-42.667 0-59.733-8.533-8.533-17.067-12.8-29.867-12.8z" />
<glyph unicode="&#xe91f;" glyph-name="bell" d="M512-21.333c-21.333 0-42.667 4.267-64 17.067s-34.133 25.6-46.933 46.933c-12.8 21.333-4.267 46.933 17.067 59.733s46.933 4.267 59.733-17.067c4.267-4.267 8.533-12.8 17.067-17.067 21.333-12.8 46.933-4.267 59.733 17.067s38.4 25.6 59.733 17.067c21.333-12.8 25.6-38.4 17.067-59.733-34.133-42.667-76.8-64-119.467-64zM938.667 192h-853.333c-25.6 0-42.667 17.067-42.667 42.667s17.067 42.667 42.667 42.667c46.933 0 85.333 38.4 85.333 85.333v213.333c0 187.733 153.6 341.333 341.333 341.333s341.333-153.6 341.333-341.333v-213.333c0-46.933 38.4-85.333 85.333-85.333 25.6 0 42.667-17.067 42.667-42.667s-17.067-42.667-42.667-42.667zM234.667 277.333h558.933c-12.8 25.6-21.333 55.467-21.333 85.333v213.333c0 140.8-115.2 256-256 256s-260.267-115.2-260.267-256v-213.333c0-29.867-8.533-59.733-21.333-85.333z" />
<glyph unicode="&#xe920;" glyph-name="bluetooth" d="M512-64c-4.267 0-12.8 0-17.067 4.267-17.067 4.267-25.6 21.333-25.6 38.4v366.933l-162.133-162.133c-17.067-17.067-42.667-17.067-59.733 0s-17.067 42.667 0 59.733l204.8 204.8-204.8 204.8c-17.067 17.067-17.067 42.667 0 59.733s42.667 17.067 59.733 0l162.133-162.133v366.933c0 17.067 8.533 34.133 25.6 38.4 17.067 8.533 34.133 4.267 46.933-8.533l234.667-234.667c17.067-17.067 17.067-42.667 0-59.733l-204.8-204.8 204.8-204.8c17.067-17.067 17.067-42.667 0-59.733l-234.667-234.667c-8.533-8.533-17.067-12.8-29.867-12.8zM554.667 345.6v-264.533l132.267 132.267-132.267 132.267zM554.667 814.933v-264.533l132.267 132.267-132.267 132.267z" />
<glyph unicode="&#xe921;" glyph-name="bold" d="M597.333 405.333h-341.333c-25.6 0-42.667 17.067-42.667 42.667v341.333c0 25.6 17.067 42.667 42.667 42.667h341.333c119.467 0 213.333-93.867 213.333-213.333s-93.867-213.333-213.333-213.333zM298.667 490.667h298.667c72.533 0 128 55.467 128 128s-55.467 128-128 128h-298.667v-256zM640 64h-384c-25.6 0-42.667 17.067-42.667 42.667v341.333c0 25.6 17.067 42.667 42.667 42.667h384c119.467 0 213.333-93.867 213.333-213.333s-93.867-213.333-213.333-213.333zM298.667 149.333h341.333c72.533 0 128 55.467 128 128s-55.467 128-128 128h-341.333v-256z" />
<glyph unicode="&#xe922;" glyph-name="book-open" d="M512 21.333c-25.6 0-42.667 17.067-42.667 42.667 0 46.933-38.4 85.333-85.333 85.333h-298.667c-25.6 0-42.667 17.067-42.667 42.667v640c0 25.6 17.067 42.667 42.667 42.667h256c119.467 0 213.333-93.867 213.333-213.333v-597.333c0-25.6-17.067-42.667-42.667-42.667zM128 234.667h256c29.867 0 59.733-8.533 85.333-21.333v448c0 72.533-55.467 128-128 128h-213.333v-554.667zM512 21.333c-25.6 0-42.667 17.067-42.667 42.667v597.333c0 119.467 93.867 213.333 213.333 213.333h256c25.6 0 42.667-17.067 42.667-42.667v-640c0-25.6-17.067-42.667-42.667-42.667h-298.667c-46.933 0-85.333-38.4-85.333-85.333 0-25.6-17.067-42.667-42.667-42.667zM682.667 789.333c-72.533 0-128-55.467-128-128v-448c25.6 12.8 55.467 21.333 85.333 21.333h256v554.667h-213.333z" />
<glyph unicode="&#xe923;" glyph-name="book" d="M170.667 85.333c-25.6 0-42.667 17.067-42.667 42.667 0 81.067 68.267 149.333 149.333 149.333h576c25.6 0 42.667-17.067 42.667-42.667s-17.067-42.667-42.667-42.667h-576c-34.133 0-64-29.867-64-64 0-25.6-17.067-42.667-42.667-42.667zM853.333-21.333h-576c-81.067 0-149.333 68.267-149.333 149.333v640c0 81.067 68.267 149.333 149.333 149.333h576c25.6 0 42.667-17.067 42.667-42.667v-853.333c0-25.6-17.067-42.667-42.667-42.667zM277.333 832c-34.133 0-64-29.867-64-64v-640c0-34.133 29.867-64 64-64h533.333v768h-533.333z" />
<glyph unicode="&#xe924;" glyph-name="bookmark" d="M810.667 21.333c-8.533 0-17.067 4.267-25.6 8.533l-273.067 196.267-273.067-196.267c-12.8-8.533-29.867-8.533-42.667-4.267s-25.6 21.333-25.6 38.4v682.667c0 72.533 55.467 128 128 128h426.667c72.533 0 128-55.467 128-128v-682.667c0-17.067-8.533-29.867-21.333-38.4-8.533-4.267-12.8-4.267-21.333-4.267zM512 320c8.533 0 17.067-4.267 25.6-8.533l230.4-166.4v601.6c0 25.6-17.067 42.667-42.667 42.667h-426.667c-25.6 0-42.667-17.067-42.667-42.667v-601.6l230.4 166.4c8.533 4.267 17.067 8.533 25.6 8.533z" />
<glyph unicode="&#xe925;" glyph-name="box" d="M512-55.467c-21.333 0-38.4 4.267-55.467 12.8l-341.333 170.667c-42.667 21.333-72.533 68.267-72.533 115.2v409.6c0 46.933 25.6 93.867 72.533 115.2l341.333 170.667c34.133 17.067 76.8 17.067 115.2 0 0 0 0 0 0 0l341.333-170.667c42.667-21.333 72.533-64 72.533-115.2v-405.333c0-46.933-25.6-93.867-72.533-115.2l-341.333-170.667c-21.333-12.8-38.4-17.067-59.733-17.067zM512 866.133c-8.533 0-12.8 0-17.067-4.267l-341.333-170.667c-17.067-8.533-25.6-25.6-25.6-38.4v-405.333c0-17.067 8.533-29.867 21.333-38.4l341.333-170.667c12.8-4.267 25.6-4.267 38.4 0l341.333 170.667c12.8 8.533 25.6 21.333 25.6 38.4v405.333c0 17.067-8.533 29.867-25.6 38.4l-341.333 170.667c-4.267 0-8.533 4.267-17.067 4.267zM512 448c-8.533 0-12.8 0-17.067 4.267l-413.867 204.8c-21.333 12.8-29.867 38.4-21.333 59.733 12.8 21.333 38.4 29.867 59.733 17.067l392.533-196.267 392.533 196.267c21.333 8.533 46.933 0 55.467-17.067 8.533-21.333 0-46.933-17.067-55.467l-413.867-204.8c-4.267-8.533-8.533-8.533-17.067-8.533zM512-55.467c-25.6 0-42.667 17.067-42.667 42.667v503.467c0 25.6 17.067 42.667 42.667 42.667s42.667-17.067 42.667-42.667v-503.467c0-21.333-17.067-42.667-42.667-42.667z" />
<glyph unicode="&#xe926;" glyph-name="briefcase" d="M853.333 21.333h-682.667c-72.533 0-128 55.467-128 128v426.667c0 72.533 55.467 128 128 128h682.667c72.533 0 128-55.467 128-128v-426.667c0-72.533-55.467-128-128-128zM170.667 618.667c-25.6 0-42.667-17.067-42.667-42.667v-426.667c0-25.6 17.067-42.667 42.667-42.667h682.667c25.6 0 42.667 17.067 42.667 42.667v426.667c0 25.6-17.067 42.667-42.667 42.667h-682.667zM682.667 21.333c-25.6 0-42.667 17.067-42.667 42.667v682.667c0 25.6-17.067 42.667-42.667 42.667h-170.667c-25.6 0-42.667-17.067-42.667-42.667v-682.667c0-25.6-17.067-42.667-42.667-42.667s-42.667 17.067-42.667 42.667v682.667c0 72.533 55.467 128 128 128h170.667c72.533 0 128-55.467 128-128v-682.667c0-25.6-17.067-42.667-42.667-42.667z" />
<glyph unicode="&#xe927;" glyph-name="calendar" d="M810.667-21.333h-597.333c-72.533 0-128 55.467-128 128v597.333c0 72.533 55.467 128 128 128h597.333c72.533 0 128-55.467 128-128v-597.333c0-72.533-55.467-128-128-128zM213.333 746.667c-25.6 0-42.667-17.067-42.667-42.667v-597.333c0-25.6 17.067-42.667 42.667-42.667h597.333c25.6 0 42.667 17.067 42.667 42.667v597.333c0 25.6-17.067 42.667-42.667 42.667h-597.333zM682.667 661.333c-25.6 0-42.667 17.067-42.667 42.667v170.667c0 25.6 17.067 42.667 42.667 42.667s42.667-17.067 42.667-42.667v-170.667c0-25.6-17.067-42.667-42.667-42.667zM341.333 661.333c-25.6 0-42.667 17.067-42.667 42.667v170.667c0 25.6 17.067 42.667 42.667 42.667s42.667-17.067 42.667-42.667v-170.667c0-25.6-17.067-42.667-42.667-42.667zM896 490.667h-768c-25.6 0-42.667 17.067-42.667 42.667s17.067 42.667 42.667 42.667h768c25.6 0 42.667-17.067 42.667-42.667s-17.067-42.667-42.667-42.667z" />
<glyph unicode="&#xe928;" glyph-name="camera-off" d="M981.333-64c-12.8 0-21.333 4.267-29.867 12.8l-938.667 938.667c-17.067 17.067-17.067 42.667 0 59.733s42.667 17.067 59.733 0l938.667-938.667c17.067-17.067 17.067-42.667 0-59.733-8.533-8.533-17.067-12.8-29.867-12.8zM896 21.333h-768c-72.533 0-128 55.467-128 128v469.333c0 72.533 55.467 128 128 128h128c25.6 0 42.667-17.067 42.667-42.667s-17.067-42.667-42.667-42.667h-128c-25.6 0-42.667-17.067-42.667-42.667v-469.333c0-25.6 17.067-42.667 42.667-42.667h768c25.6 0 42.667-17.067 42.667-42.667s-17.067-42.667-42.667-42.667zM981.333 179.2c-25.6 0-42.667 17.067-42.667 42.667v396.8c0 25.6-17.067 42.667-42.667 42.667h-170.667c-12.8 0-25.6 8.533-34.133 17.067l-72.533 110.933h-234.667c-25.6 0-42.667 17.067-42.667 42.667s17.067 42.667 42.667 42.667h256c12.8 0 25.6-8.533 34.133-17.067l72.533-110.933h149.333c72.533 0 128-55.467 128-128v-396.8c0-25.6-17.067-42.667-42.667-42.667zM512 192c-42.667 0-85.333 12.8-119.467 38.4-46.933 34.133-76.8 81.067-89.6 136.533-8.533 55.467 0 110.933 34.133 157.867 17.067 21.333 34.133 42.667 55.467 55.467s46.933 8.533 59.733-12.8c12.8-21.333 8.533-46.933-12.8-59.733-12.8-8.533-25.6-17.067-34.133-29.867-17.067-29.867-25.6-64-21.333-98.133s25.6-64 55.467-81.067c29.867-21.333 64-25.6 93.867-21.333 34.133 4.267 64 25.6 81.067 55.467 12.8 21.333 38.4 25.6 59.733 12.8s25.6-38.4 12.8-59.733c-34.133-46.933-81.067-76.8-136.533-89.6-12.8-4.267-25.6-4.267-38.4-4.267z" />
<glyph unicode="&#xe929;" glyph-name="camera" d="M896 21.333h-768c-72.533 0-128 55.467-128 128v469.333c0 72.533 55.467 128 128 128h149.333l72.533 110.933c8.533 8.533 21.333 17.067 34.133 17.067h256c12.8 0 25.6-8.533 34.133-17.067l72.533-110.933h149.333c72.533 0 128-55.467 128-128v-469.333c0-72.533-55.467-128-128-128zM128 661.333c-25.6 0-42.667-17.067-42.667-42.667v-469.333c0-25.6 17.067-42.667 42.667-42.667h768c25.6 0 42.667 17.067 42.667 42.667v469.333c0 25.6-17.067 42.667-42.667 42.667h-170.667c-12.8 0-25.6 8.533-34.133 17.067l-72.533 110.933h-213.333l-72.533-110.933c-8.533-8.533-21.333-17.067-34.133-17.067h-170.667zM512 192c-119.467 0-213.333 93.867-213.333 213.333s93.867 213.333 213.333 213.333 213.333-93.867 213.333-213.333-93.867-213.333-213.333-213.333zM512 533.333c-72.533 0-128-55.467-128-128s55.467-128 128-128 128 55.467 128 128-55.467 128-128 128z" />
<glyph unicode="&#xe92a;" glyph-name="cast" d="M251.733 64c-21.333 0-38.4 12.8-42.667 34.133-12.8 68.267-64 119.467-132.267 132.267-21.333 4.267-38.4 29.867-34.133 51.2s25.6 38.4 51.2 34.133c102.4-21.333 179.2-98.133 200.533-200.533 4.267-21.333-12.8-46.933-34.133-51.2-4.267 0-4.267 0-8.533 0zM422.4 64c-21.333 0-38.4 17.067-42.667 38.4-17.067 157.867-140.8 285.867-302.933 302.933-21.333 0-38.4 21.333-34.133 46.933 4.267 21.333 25.6 38.4 46.933 38.4 200.533-21.333 354.133-179.2 375.467-375.467 4.267-21.333-12.8-42.667-38.4-46.933 0-4.267 0-4.267-4.267-4.267zM853.333 64h-256c-25.6 0-42.667 17.067-42.667 42.667s17.067 42.667 42.667 42.667h256c25.6 0 42.667 17.067 42.667 42.667v512c0 25.6-17.067 42.667-42.667 42.667h-682.667c-25.6 0-42.667-17.067-42.667-42.667v-85.333c0-25.6-17.067-42.667-42.667-42.667s-42.667 17.067-42.667 42.667v85.333c0 72.533 55.467 128 128 128h682.667c72.533 0 128-55.467 128-128v-512c0-72.533-55.467-128-128-128zM85.333 64c-12.8 0-21.333 4.267-29.867 12.8-4.267 4.267-8.533 8.533-8.533 12.8-4.267 4.267-4.267 12.8-4.267 17.067s0 12.8 4.267 17.067c4.267 4.267 4.267 8.533 8.533 12.8 12.8 12.8 29.867 17.067 46.933 8.533 4.267 0 8.533-4.267 12.8-8.533 8.533-8.533 12.8-17.067 12.8-29.867 0-4.267 0-12.8-4.267-17.067s-4.267-8.533-8.533-12.8c-8.533-8.533-17.067-12.8-29.867-12.8z" />
<glyph unicode="&#xe92b;" glyph-name="check-circle" d="M512-21.333c0 0 0 0 0 0-260.267 0-469.333 209.067-469.333 469.333s209.067 469.333 469.333 469.333c0 0 0 0 0 0 68.267 0 132.267-12.8 192-42.667 21.333-8.533 29.867-34.133 21.333-55.467s-34.133-29.867-55.467-21.333c-51.2 21.333-102.4 34.133-157.867 34.133 0 0 0 0 0 0-213.333 0-384-170.667-384-384s170.667-384 384-384c0 0 0 0 0 0 213.333 0 384 170.667 384 384v38.4c0 25.6 17.067 42.667 42.667 42.667s42.667-17.067 42.667-42.667v-38.4c0-260.267-209.067-469.333-469.333-469.333zM512 320c-12.8 0-21.333 4.267-29.867 12.8l-128 128c-17.067 17.067-17.067 42.667 0 59.733s42.667 17.067 59.733 0l98.133-98.133 396.8 396.8c17.067 17.067 42.667 17.067 59.733 0s17.067-42.667 0-59.733l-426.667-426.667c-8.533-8.533-17.067-12.8-29.867-12.8z" />
<glyph unicode="&#xe92c;" glyph-name="check-square" d="M512 320c-12.8 0-21.333 4.267-29.867 12.8l-128 128c-17.067 17.067-17.067 42.667 0 59.733s42.667 17.067 59.733 0l98.133-98.133 396.8 396.8c17.067 17.067 42.667 17.067 59.733 0s17.067-42.667 0-59.733l-426.667-426.667c-8.533-8.533-17.067-12.8-29.867-12.8zM810.667 21.333h-597.333c-72.533 0-128 55.467-128 128v597.333c0 72.533 55.467 128 128 128h469.333c25.6 0 42.667-17.067 42.667-42.667s-17.067-42.667-42.667-42.667h-469.333c-25.6 0-42.667-17.067-42.667-42.667v-597.333c0-25.6 17.067-42.667 42.667-42.667h597.333c25.6 0 42.667 17.067 42.667 42.667v298.667c0 25.6 17.067 42.667 42.667 42.667s42.667-17.067 42.667-42.667v-298.667c0-72.533-55.467-128-128-128z" />
<glyph unicode="&#xe92d;" glyph-name="check" d="M384 192c-12.8 0-21.333 4.267-29.867 12.8l-213.333 213.333c-17.067 17.067-17.067 42.667 0 59.733s42.667 17.067 59.733 0l183.467-183.467 439.467 439.467c17.067 17.067 42.667 17.067 59.733 0s17.067-42.667 0-59.733l-469.333-469.333c-8.533-8.533-17.067-12.8-29.867-12.8z" />
<glyph unicode="&#xe92e;" glyph-name="chevron-down" d="M512 277.333c-12.8 0-21.333 4.267-29.867 12.8l-256 256c-17.067 17.067-17.067 42.667 0 59.733s42.667 17.067 59.733 0l226.133-226.133 226.133 226.133c17.067 17.067 42.667 17.067 59.733 0s17.067-42.667 0-59.733l-256-256c-8.533-8.533-17.067-12.8-29.867-12.8z" />
<glyph unicode="&#xe92f;" glyph-name="chevron-left" d="M640 149.333c-12.8 0-21.333 4.267-29.867 12.8l-256 256c-17.067 17.067-17.067 42.667 0 59.733l256 256c17.067 17.067 42.667 17.067 59.733 0s17.067-42.667 0-59.733l-226.133-226.133 226.133-226.133c17.067-17.067 17.067-42.667 0-59.733-8.533-8.533-17.067-12.8-29.867-12.8z" />
<glyph unicode="&#xe930;" glyph-name="chevron-right" d="M384 149.333c-12.8 0-21.333 4.267-29.867 12.8-17.067 17.067-17.067 42.667 0 59.733l226.133 226.133-226.133 226.133c-17.067 17.067-17.067 42.667 0 59.733s42.667 17.067 59.733 0l256-256c17.067-17.067 17.067-42.667 0-59.733l-256-256c-8.533-8.533-17.067-12.8-29.867-12.8z" />
<glyph unicode="&#xe931;" glyph-name="chevron-up" d="M768 277.333c-12.8 0-21.333 4.267-29.867 12.8l-226.133 226.133-226.133-226.133c-17.067-17.067-42.667-17.067-59.733 0s-17.067 42.667 0 59.733l256 256c17.067 17.067 42.667 17.067 59.733 0l256-256c17.067-17.067 17.067-42.667 0-59.733-8.533-8.533-17.067-12.8-29.867-12.8z" />
<glyph unicode="&#xe932;" glyph-name="chevrons-down" d="M512 149.333c-12.8 0-21.333 4.267-29.867 12.8l-213.333 213.333c-17.067 17.067-17.067 42.667 0 59.733s42.667 17.067 59.733 0l183.467-183.467 183.467 183.467c17.067 17.067 42.667 17.067 59.733 0s17.067-42.667 0-59.733l-213.333-213.333c-8.533-8.533-17.067-12.8-29.867-12.8zM512 448c-12.8 0-21.333 4.267-29.867 12.8l-213.333 213.333c-17.067 17.067-17.067 42.667 0 59.733s42.667 17.067 59.733 0l183.467-183.467 183.467 183.467c17.067 17.067 42.667 17.067 59.733 0s17.067-42.667 0-59.733l-213.333-213.333c-8.533-8.533-17.067-12.8-29.867-12.8z" />
<glyph unicode="&#xe933;" glyph-name="chevrons-left" d="M469.333 192c-12.8 0-21.333 4.267-29.867 12.8l-213.333 213.333c-17.067 17.067-17.067 42.667 0 59.733l213.333 213.333c17.067 17.067 42.667 17.067 59.733 0s17.067-42.667 0-59.733l-183.467-183.467 183.467-183.467c17.067-17.067 17.067-42.667 0-59.733-8.533-8.533-17.067-12.8-29.867-12.8zM768 192c-12.8 0-21.333 4.267-29.867 12.8l-213.333 213.333c-17.067 17.067-17.067 42.667 0 59.733l213.333 213.333c17.067 17.067 42.667 17.067 59.733 0s17.067-42.667 0-59.733l-183.467-183.467 183.467-183.467c17.067-17.067 17.067-42.667 0-59.733-8.533-8.533-17.067-12.8-29.867-12.8z" />
<glyph unicode="&#xe934;" glyph-name="chevrons-right" d="M554.667 192c-12.8 0-21.333 4.267-29.867 12.8-17.067 17.067-17.067 42.667 0 59.733l183.467 183.467-183.467 183.467c-17.067 17.067-17.067 42.667 0 59.733s42.667 17.067 59.733 0l213.333-213.333c17.067-17.067 17.067-42.667 0-59.733l-213.333-213.333c-8.533-8.533-17.067-12.8-29.867-12.8zM256 192c-12.8 0-21.333 4.267-29.867 12.8-17.067 17.067-17.067 42.667 0 59.733l183.467 183.467-183.467 183.467c-17.067 17.067-17.067 42.667 0 59.733s42.667 17.067 59.733 0l213.333-213.333c17.067-17.067 17.067-42.667 0-59.733l-213.333-213.333c-8.533-8.533-17.067-12.8-29.867-12.8z" />
<glyph unicode="&#xe935;" glyph-name="chevrons-up" d="M725.333 448c-12.8 0-21.333 4.267-29.867 12.8l-183.467 183.467-183.467-183.467c-17.067-17.067-42.667-17.067-59.733 0s-17.067 42.667 0 59.733l213.333 213.333c17.067 17.067 42.667 17.067 59.733 0l213.333-213.333c17.067-17.067 17.067-42.667 0-59.733-8.533-8.533-17.067-12.8-29.867-12.8zM725.333 149.333c-12.8 0-21.333 4.267-29.867 12.8l-183.467 183.467-183.467-183.467c-17.067-17.067-42.667-17.067-59.733 0s-17.067 42.667 0 59.733l213.333 213.333c17.067 17.067 42.667 17.067 59.733 0l213.333-213.333c17.067-17.067 17.067-42.667 0-59.733-8.533-8.533-17.067-12.8-29.867-12.8z" />
<glyph unicode="&#xe936;" glyph-name="chrome" d="M512-21.333c-260.267 0-469.333 209.067-469.333 469.333s209.067 469.333 469.333 469.333 469.333-209.067 469.333-469.333-209.067-469.333-469.333-469.333zM512 832c-213.333 0-384-170.667-384-384s170.667-384 384-384c213.333 0 384 170.667 384 384s-170.667 384-384 384zM512 234.667c-119.467 0-213.333 93.867-213.333 213.333s93.867 213.333 213.333 213.333 213.333-93.867 213.333-213.333-93.867-213.333-213.333-213.333zM512 576c-72.533 0-128-55.467-128-128s55.467-128 128-128 128 55.467 128 128-55.467 128-128 128zM904.533 576h-392.533c-25.6 0-42.667 17.067-42.667 42.667s17.067 42.667 42.667 42.667h392.533c25.6 0 42.667-17.067 42.667-42.667s-21.333-42.667-42.667-42.667zM362.667 320c-12.8 0-29.867 8.533-38.4 21.333l-192 337.067c-12.8 21.333-4.267 46.933 12.8 59.733 21.333 12.8 46.933 4.267 59.733-17.067l196.267-337.067c12.8-21.333 4.267-46.933-17.067-59.733-4.267-4.267-12.8-4.267-21.333-4.267zM465.067-17.067c-8.533 0-12.8 0-21.333 4.267-21.333 12.8-25.6 38.4-17.067 59.733l196.267 337.067c12.8 21.333 38.4 25.6 59.733 17.067 21.333-12.8 25.6-38.4 17.067-59.733l-196.267-337.067c-8.533-17.067-25.6-21.333-38.4-21.333z" />
<glyph unicode="&#xe937;" glyph-name="circle" d="M512-21.333c-260.267 0-469.333 209.067-469.333 469.333s209.067 469.333 469.333 469.333 469.333-209.067 469.333-469.333-209.067-469.333-469.333-469.333zM512 832c-213.333 0-384-170.667-384-384s170.667-384 384-384c213.333 0 384 170.667 384 384s-170.667 384-384 384z" />
<glyph unicode="&#xe938;" glyph-name="clipboard" d="M768-21.333h-512c-72.533 0-128 55.467-128 128v597.333c0 72.533 55.467 128 128 128h85.333c25.6 0 42.667-17.067 42.667-42.667s-17.067-42.667-42.667-42.667h-85.333c-25.6 0-42.667-17.067-42.667-42.667v-597.333c0-25.6 17.067-42.667 42.667-42.667h512c25.6 0 42.667 17.067 42.667 42.667v597.333c0 25.6-17.067 42.667-42.667 42.667h-85.333c-25.6 0-42.667 17.067-42.667 42.667s17.067 42.667 42.667 42.667h85.333c72.533 0 128-55.467 128-128v-597.333c0-72.533-55.467-128-128-128zM640 661.333h-256c-46.933 0-85.333 38.4-85.333 85.333v85.333c0 46.933 38.4 85.333 85.333 85.333h256c46.933 0 85.333-38.4 85.333-85.333v-85.333c0-46.933-38.4-85.333-85.333-85.333zM384 832v0-85.333h256v85.333h-256z" />
<glyph unicode="&#xe939;" glyph-name="clock" d="M512-21.333c-260.267 0-469.333 209.067-469.333 469.333s209.067 469.333 469.333 469.333 469.333-209.067 469.333-469.333-209.067-469.333-469.333-469.333zM512 832c-213.333 0-384-170.667-384-384s170.667-384 384-384c213.333 0 384 170.667 384 384s-170.667 384-384 384zM682.667 320c-8.533 0-12.8 0-17.067 4.267l-170.667 85.333c-17.067 8.533-25.6 21.333-25.6 38.4v256c0 25.6 17.067 42.667 42.667 42.667s42.667-17.067 42.667-42.667v-230.4l145.067-72.533c21.333-8.533 29.867-34.133 17.067-55.467-4.267-17.067-17.067-25.6-34.133-25.6z" />
<glyph unicode="&#xe93a;" glyph-name="cloud-drizzle" d="M341.333 21.333c-25.6 0-42.667 17.067-42.667 42.667v85.333c0 25.6 17.067 42.667 42.667 42.667s42.667-17.067 42.667-42.667v-85.333c0-25.6-17.067-42.667-42.667-42.667zM341.333 277.333c-25.6 0-42.667 17.067-42.667 42.667v85.333c0 25.6 17.067 42.667 42.667 42.667s42.667-17.067 42.667-42.667v-85.333c0-25.6-17.067-42.667-42.667-42.667zM682.667 21.333c-25.6 0-42.667 17.067-42.667 42.667v85.333c0 25.6 17.067 42.667 42.667 42.667s42.667-17.067 42.667-42.667v-85.333c0-25.6-17.067-42.667-42.667-42.667zM682.667 277.333c-25.6 0-42.667 17.067-42.667 42.667v85.333c0 25.6 17.067 42.667 42.667 42.667s42.667-17.067 42.667-42.667v-85.333c0-25.6-17.067-42.667-42.667-42.667zM512-64c-25.6 0-42.667 17.067-42.667 42.667v85.333c0 25.6 17.067 42.667 42.667 42.667s42.667-17.067 42.667-42.667v-85.333c0-25.6-17.067-42.667-42.667-42.667zM512 192c-25.6 0-42.667 17.067-42.667 42.667v85.333c0 25.6 17.067 42.667 42.667 42.667s42.667-17.067 42.667-42.667v-85.333c0-25.6-17.067-42.667-42.667-42.667zM853.333 209.067c-17.067 0-34.133 8.533-38.4 25.6-8.533 21.333 0 46.933 21.333 55.467 42.667 17.067 72.533 51.2 89.6 93.867s17.067 89.6-4.267 132.267c-25.6 64-85.333 102.4-153.6 102.4h-55.467c-21.333 0-38.4 12.8-42.667 34.133-42.667 157.867-204.8 256-362.667 213.333s-256-204.8-213.333-362.667c17.067-64 51.2-119.467 102.4-157.867 17.067-12.8 21.333-42.667 8.533-59.733s-42.667-21.333-59.733-8.533c-64 51.2-110.933 123.733-132.267 204.8-55.467 204.8 68.267 413.867 273.067 465.067 196.267 51.2 392.533-59.733 456.533-243.2h25.6c102.4 0 192-59.733 234.667-153.6 25.6-64 29.867-132.267 4.267-196.267s-72.533-115.2-136.533-140.8c-4.267-4.267-12.8-4.267-17.067-4.267z" />
<glyph unicode="&#xe93b;" glyph-name="cloud-lightning" d="M810.667 196.267c-21.333 0-38.4 12.8-42.667 34.133s8.533 46.933 34.133 51.2c93.867 17.067 153.6 110.933 132.267 200.533-17.067 81.067-85.333 136.533-166.4 136.533 0 0 0 0 0 0h-55.467c-21.333 0-38.4 12.8-42.667 34.133-42.667 157.867-204.8 256-362.667 213.333-76.8-21.333-140.8-68.267-179.2-136.533-42.667-72.533-55.467-149.333-34.133-230.4s72.533-145.067 145.067-187.733c21.333-8.533 29.867-34.133 17.067-55.467s-38.4-29.867-59.733-17.067c-93.867 51.2-157.867 136.533-187.733 238.933-25.6 98.133-12.8 204.8 42.667 290.133 51.2 89.6 136.533 149.333 234.667 174.933 192 51.2 392.533-59.733 456.533-243.2h25.6c0 0 0 0 0 0 119.467 0 226.133-85.333 251.733-204.8 29.867-136.533-59.733-273.067-200.533-302.933-4.267 4.267-4.267 4.267-8.533 4.267zM469.333-64c-8.533 0-17.067 4.267-25.6 8.533-21.333 12.8-25.6 38.4-12.8 59.733l128 187.733h-174.933c-17.067 0-29.867 8.533-38.4 21.333s-8.533 29.867 0 42.667l170.667 256c12.8 21.333 38.4 25.6 59.733 12.8s25.6-38.4 12.8-59.733l-128-187.733h179.2c17.067 0 29.867-8.533 38.4-21.333s8.533-29.867 0-42.667l-170.667-256c-12.8-12.8-25.6-21.333-38.4-21.333z" />
<glyph unicode="&#xe93c;" glyph-name="cloud-off" d="M379.733 64c-140.8 0-268.8 76.8-337.067 196.267-51.2 89.6-59.733 192-34.133 290.133s93.867 179.2 183.467 230.4c21.333 12.8 46.933 8.533 59.733-12.8 8.533-21.333 4.267-46.933-17.067-59.733-68.267-38.4-119.467-102.4-140.8-179.2s-12.8-157.867 25.6-226.133c51.2-98.133 153.6-157.867 264.533-153.6h384c21.333 0 38.4 4.267 59.733 8.533 21.333 8.533 46.933-4.267 55.467-25.6s-4.267-46.933-25.6-55.467c-29.867-8.533-55.467-17.067-85.333-17.067h-388.267c0 4.267-4.267 4.267-4.267 4.267zM964.267 192c-4.267 0-12.8 0-17.067 4.267-21.333 8.533-29.867 34.133-21.333 55.467 38.4 85.333-4.267 187.733-89.6 221.867-21.333 8.533-42.667 12.8-68.267 12.8 0 0 0 0 0 0h-55.467c-21.333 0-38.4 12.8-42.667 34.133-29.867 123.733-132.267 213.333-260.267 226.133-25.6 0-42.667 21.333-38.4 46.933 0 25.6 21.333 42.667 46.933 38.4 149.333-12.8 277.333-115.2 328.533-256h21.333c34.133 0 68.267-8.533 98.133-21.333 128-55.467 192-204.8 136.533-337.067-4.267-12.8-21.333-25.6-38.4-25.6zM981.333-64c-12.8 0-21.333 4.267-29.867 12.8l-938.667 938.667c-17.067 17.067-17.067 42.667 0 59.733s42.667 17.067 59.733 0l938.667-938.667c17.067-17.067 17.067-42.667 0-59.733-8.533-8.533-17.067-12.8-29.867-12.8z" />
<glyph unicode="&#xe93d;" glyph-name="cloud-rain" d="M682.667 21.333c-25.6 0-42.667 17.067-42.667 42.667v341.333c0 25.6 17.067 42.667 42.667 42.667s42.667-17.067 42.667-42.667v-341.333c0-25.6-17.067-42.667-42.667-42.667zM341.333 21.333c-25.6 0-42.667 17.067-42.667 42.667v341.333c0 25.6 17.067 42.667 42.667 42.667s42.667-17.067 42.667-42.667v-341.333c0-25.6-17.067-42.667-42.667-42.667zM512-64c-25.6 0-42.667 17.067-42.667 42.667v341.333c0 25.6 17.067 42.667 42.667 42.667s42.667-17.067 42.667-42.667v-341.333c0-25.6-17.067-42.667-42.667-42.667zM853.333 209.067c-17.067 0-34.133 8.533-38.4 25.6-8.533 21.333 0 46.933 21.333 55.467 42.667 17.067 72.533 51.2 89.6 93.867s17.067 89.6-4.267 132.267c-25.6 64-85.333 102.4-153.6 102.4h-55.467c-21.333 0-38.4 12.8-42.667 34.133-42.667 157.867-204.8 256-362.667 213.333s-256-204.8-213.333-362.667c17.067-64 51.2-119.467 102.4-157.867 17.067-12.8 21.333-42.667 8.533-59.733s-42.667-21.333-59.733-8.533c-64 51.2-110.933 123.733-132.267 204.8-55.467 204.8 68.267 413.867 273.067 465.067 196.267 51.2 392.533-59.733 456.533-243.2h25.6c102.4 0 192-59.733 234.667-153.6 25.6-64 29.867-132.267 4.267-196.267s-72.533-115.2-136.533-140.8c-4.267-4.267-12.8-4.267-17.067-4.267z" />
<glyph unicode="&#xe93e;" glyph-name="cloud-snow" d="M853.333 166.4c-17.067 0-34.133 8.533-38.4 25.6-8.533 21.333 0 46.933 21.333 55.467 42.667 17.067 72.533 51.2 89.6 93.867s17.067 89.6-4.267 132.267c-25.6 64-85.333 102.4-153.6 102.4h-55.467c-21.333 0-38.4 12.8-42.667 34.133-42.667 157.867-204.8 256-362.667 213.333s-256-204.8-213.333-362.667c17.067-64 51.2-119.467 102.4-157.867 17.067-12.8 21.333-42.667 8.533-59.733s-42.667-21.333-59.733-8.533c-64 51.2-110.933 123.733-132.267 204.8-55.467 204.8 68.267 413.867 273.067 465.067 196.267 51.2 392.533-59.733 456.533-243.2h25.6c102.4 0 192-59.733 234.667-153.6 25.6-64 29.867-132.267 4.267-196.267s-72.533-115.2-136.533-140.8c-4.267-4.267-12.8-4.267-17.067-4.267zM341.333 234.667c-12.8 0-21.333 4.267-29.867 12.8s-12.8 17.067-12.8 29.867c0 4.267 0 12.8 4.267 17.067s4.267 8.533 8.533 12.8c12.8 12.8 29.867 17.067 46.933 8.533 4.267 0 8.533-4.267 12.8-8.533s8.533-8.533 8.533-12.8c4.267-4.267 4.267-12.8 4.267-17.067 0-12.8-4.267-21.333-12.8-29.867s-17.067-12.8-29.867-12.8zM341.333 64c-12.8 0-21.333 4.267-29.867 12.8-4.267 4.267-8.533 8.533-8.533 12.8-4.267 4.267-4.267 12.8-4.267 17.067 0 12.8 4.267 21.333 12.8 29.867 17.067 17.067 42.667 17.067 59.733 0 8.533-8.533 12.8-17.067 12.8-29.867 0-4.267 0-12.8-4.267-17.067s-4.267-8.533-8.533-12.8c-8.533-8.533-17.067-12.8-29.867-12.8zM512 149.333c-12.8 0-21.333 4.267-29.867 12.8s-12.8 17.067-12.8 29.867c0 4.267 0 12.8 4.267 17.067s4.267 8.533 8.533 12.8c0 0 4.267 4.267 4.267 4.267 4.267 0 4.267 4.267 8.533 4.267s4.267 0 8.533 4.267c12.8 4.267 29.867 0 38.4-12.8 4.267-4.267 8.533-8.533 8.533-12.8 4.267-4.267 4.267-12.8 4.267-17.067 0-12.8-4.267-21.333-12.8-29.867s-17.067-12.8-29.867-12.8zM512-21.333c-4.267 0-12.8 0-17.067 4.267-4.267 0-8.533 4.267-12.8 8.533-8.533 8.533-12.8 17.067-12.8 29.867 0 4.267 0 12.8 4.267 17.067s4.267 8.533 8.533 12.8c17.067 17.067 42.667 17.067 59.733 0 8.533-8.533 12.8-21.333 12.8-29.867 0-12.8-4.267-21.333-12.8-29.867s-17.067-12.8-29.867-12.8zM682.667 234.667c-12.8 0-21.333 4.267-29.867 12.8s-12.8 17.067-12.8 29.867c0 4.267 0 12.8 4.267 17.067 0 4.267 4.267 8.533 8.533 12.8 8.533 8.533 25.6 12.8 38.4 12.8 4.267 0 4.267 0 8.533-4.267 4.267 0 4.267 0 8.533-4.267 0 0 4.267-4.267 8.533-4.267 4.267-4.267 8.533-8.533 8.533-12.8s4.267-8.533 4.267-17.067c0-12.8-4.267-21.333-12.8-29.867-12.8-8.533-21.333-12.8-34.133-12.8zM682.667 64c-12.8 0-21.333 4.267-29.867 12.8-4.267 4.267-8.533 8.533-8.533 12.8s-4.267 8.533-4.267 17.067c0 12.8 4.267 21.333 12.8 29.867 17.067 17.067 42.667 17.067 59.733 0 8.533-8.533 12.8-21.333 12.8-29.867 0-4.267 0-12.8-4.267-17.067s-4.267-8.533-8.533-12.8c-8.533-8.533-17.067-12.8-29.867-12.8z" />
<glyph unicode="&#xe93f;" glyph-name="cloud" d="M384 64c-174.933 0-328.533 119.467-371.2 290.133-25.6 98.133-12.8 204.8 42.667 290.133 51.2 89.6 136.533 149.333 234.667 174.933s204.8 12.8 290.133-42.667c76.8-42.667 136.533-115.2 166.4-200.533h21.333c140.8 0 256-115.2 256-256s-115.2-256-256-256h-384c0 0 0 0 0 0zM384 746.667c-25.6 0-51.2-4.267-76.8-8.533-76.8-21.333-140.8-68.267-179.2-136.533s-51.2-149.333-29.867-226.133c29.867-132.267 149.333-226.133 285.867-226.133 0 0 0 0 0 0h384c93.867 0 170.667 76.8 170.667 170.667s-76.8 170.667-170.667 170.667h-55.467c-21.333 0-38.4 12.8-42.667 34.133-29.867 132.267-153.6 221.867-285.867 221.867z" />
<glyph unicode="&#xe940;" glyph-name="code" d="M682.667 149.333c-12.8 0-21.333 4.267-29.867 12.8-17.067 17.067-17.067 42.667 0 59.733l226.133 226.133-226.133 226.133c-17.067 17.067-17.067 42.667 0 59.733s42.667 17.067 59.733 0l256-256c17.067-17.067 17.067-42.667 0-59.733l-256-256c-8.533-8.533-17.067-12.8-29.867-12.8zM341.333 149.333c-12.8 0-21.333 4.267-29.867 12.8l-256 256c-17.067 17.067-17.067 42.667 0 59.733l256 256c17.067 17.067 42.667 17.067 59.733 0s17.067-42.667 0-59.733l-226.133-226.133 226.133-226.133c17.067-17.067 17.067-42.667 0-59.733-8.533-8.533-17.067-12.8-29.867-12.8z" />
<glyph unicode="&#xe941;" glyph-name="codepen" d="M512-21.333c-8.533 0-17.067 4.267-21.333 8.533l-426.667 277.333c-12.8 4.267-21.333 21.333-21.333 34.133v298.667c0 12.8 8.533 29.867 21.333 34.133l426.667 277.333c12.8 8.533 34.133 8.533 46.933 0l426.667-277.333c8.533-4.267 17.067-21.333 17.067-34.133v-298.667c0-12.8-8.533-29.867-21.333-34.133l-426.667-277.333c-4.267-4.267-12.8-8.533-21.333-8.533zM128 320l384-251.733 384 251.733v256l-384 247.467-384-247.467v-256zM512-21.333c-25.6 0-42.667 17.067-42.667 42.667v277.333c0 25.6 17.067 42.667 42.667 42.667s42.667-17.067 42.667-42.667v-277.333c0-25.6-17.067-42.667-42.667-42.667zM512 256c-8.533 0-17.067 4.267-25.6 8.533l-426.667 298.667c-17.067 12.8-21.333 38.4-8.533 59.733s38.4 25.6 59.733 8.533l401.067-281.6 401.067 281.6c21.333 12.8 46.933 8.533 59.733-8.533 12.8-21.333 8.533-46.933-8.533-59.733l-426.667-298.667c-8.533-4.267-17.067-8.533-25.6-8.533zM938.667 256c-8.533 0-17.067 4.267-25.6 8.533l-401.067 281.6-401.067-281.6c-21.333-12.8-46.933-8.533-59.733 8.533-12.8 21.333-8.533 46.933 8.533 59.733l426.667 298.667c12.8 8.533 34.133 8.533 46.933 0l426.667-298.667c21.333-12.8 25.6-38.4 8.533-59.733-4.267-12.8-17.067-17.067-29.867-17.067zM512 554.667c-25.6 0-42.667 17.067-42.667 42.667v277.333c0 25.6 17.067 42.667 42.667 42.667s42.667-17.067 42.667-42.667v-277.333c0-25.6-17.067-42.667-42.667-42.667z" />
<glyph unicode="&#xe942;" glyph-name="command" d="M768 21.333c-93.867 0-170.667 76.8-170.667 170.667v85.333h-170.667v-85.333c0-93.867-76.8-170.667-170.667-170.667s-170.667 76.8-170.667 170.667 76.8 170.667 170.667 170.667h85.333v170.667h-85.333c-93.867 0-170.667 76.8-170.667 170.667s76.8 170.667 170.667 170.667 170.667-76.8 170.667-170.667v-85.333h170.667v85.333c0 93.867 76.8 170.667 170.667 170.667s170.667-76.8 170.667-170.667-76.8-170.667-170.667-170.667h-85.333v-170.667h85.333c93.867 0 170.667-76.8 170.667-170.667s-76.8-170.667-170.667-170.667zM682.667 277.333v-85.333c0-46.933 38.4-85.333 85.333-85.333s85.333 38.4 85.333 85.333-38.4 85.333-85.333 85.333h-85.333zM256 277.333c-46.933 0-85.333-38.4-85.333-85.333s38.4-85.333 85.333-85.333 85.333 38.4 85.333 85.333v85.333h-85.333zM426.667 362.667h170.667v170.667h-170.667v-170.667zM682.667 618.667h85.333c46.933 0 85.333 38.4 85.333 85.333s-38.4 85.333-85.333 85.333-85.333-38.4-85.333-85.333v-85.333zM256 789.333c-46.933 0-85.333-38.4-85.333-85.333s38.4-85.333 85.333-85.333h85.333v85.333c0 46.933-38.4 85.333-85.333 85.333z" />
<glyph unicode="&#xe943;" glyph-name="compass" d="M512-21.333c-260.267 0-469.333 209.067-469.333 469.333s209.067 469.333 469.333 469.333 469.333-209.067 469.333-469.333-209.067-469.333-469.333-469.333zM512 832c-213.333 0-384-170.667-384-384s170.667-384 384-384c213.333 0 384 170.667 384 384s-170.667 384-384 384zM332.8 226.133c-12.8 0-21.333 4.267-29.867 12.8-12.8 12.8-17.067 29.867-8.533 42.667l89.6 273.067c0 8.533 12.8 21.333 25.6 25.6l273.067 89.6c17.067 4.267 34.133 0 42.667-8.533 12.8-12.8 17.067-29.867 8.533-42.667l-89.6-273.067c-4.267-12.8-12.8-21.333-25.6-25.6l-273.067-89.6c-4.267-4.267-8.533-4.267-12.8-4.267zM456.533 503.467l-55.467-170.667 170.667 55.467 55.467 170.667-170.667-55.467z" />
<glyph unicode="&#xe944;" glyph-name="copy" d="M853.333-21.333h-384c-72.533 0-128 55.467-128 128v384c0 72.533 55.467 128 128 128h384c72.533 0 128-55.467 128-128v-384c0-72.533-55.467-128-128-128zM469.333 533.333c-25.6 0-42.667-17.067-42.667-42.667v-384c0-25.6 17.067-42.667 42.667-42.667h384c25.6 0 42.667 17.067 42.667 42.667v384c0 25.6-17.067 42.667-42.667 42.667h-384zM213.333 277.333h-42.667c-72.533 0-128 55.467-128 128v384c0 72.533 55.467 128 128 128h384c72.533 0 128-55.467 128-128v-42.667c0-25.6-17.067-42.667-42.667-42.667s-42.667 17.067-42.667 42.667v42.667c0 25.6-17.067 42.667-42.667 42.667h-384c-25.6 0-42.667-17.067-42.667-42.667v-384c0-25.6 17.067-42.667 42.667-42.667h42.667c25.6 0 42.667-17.067 42.667-42.667s-17.067-42.667-42.667-42.667z" />
<glyph unicode="&#xe945;" glyph-name="corner-down-left" d="M384 64c-12.8 0-21.333 4.267-29.867 12.8l-213.333 213.333c-17.067 17.067-17.067 42.667 0 59.733l213.333 213.333c17.067 17.067 42.667 17.067 59.733 0s17.067-42.667 0-59.733l-183.467-183.467 183.467-183.467c17.067-17.067 17.067-42.667 0-59.733-8.533-8.533-17.067-12.8-29.867-12.8zM682.667 277.333h-512c-25.6 0-42.667 17.067-42.667 42.667s17.067 42.667 42.667 42.667h512c72.533 0 128 55.467 128 128v298.667c0 25.6 17.067 42.667 42.667 42.667s42.667-17.067 42.667-42.667v-298.667c0-119.467-93.867-213.333-213.333-213.333z" />
<glyph unicode="&#xe946;" glyph-name="corner-down-right" d="M640 64c-12.8 0-21.333 4.267-29.867 12.8-17.067 17.067-17.067 42.667 0 59.733l183.467 183.467-183.467 183.467c-17.067 17.067-17.067 42.667 0 59.733s42.667 17.067 59.733 0l213.333-213.333c17.067-17.067 17.067-42.667 0-59.733l-213.333-213.333c-8.533-8.533-17.067-12.8-29.867-12.8zM853.333 277.333h-512c-119.467 0-213.333 93.867-213.333 213.333v298.667c0 25.6 17.067 42.667 42.667 42.667s42.667-17.067 42.667-42.667v-298.667c0-72.533 55.467-128 128-128h512c25.6 0 42.667-17.067 42.667-42.667s-17.067-42.667-42.667-42.667z" />
<glyph unicode="&#xe947;" glyph-name="corner-left-down" d="M384 64c-12.8 0-21.333 4.267-29.867 12.8l-213.333 213.333c-17.067 17.067-17.067 42.667 0 59.733s42.667 17.067 59.733 0l183.467-183.467 183.467 183.467c17.067 17.067 42.667 17.067 59.733 0s17.067-42.667 0-59.733l-213.333-213.333c-8.533-8.533-17.067-12.8-29.867-12.8zM384 64c-25.6 0-42.667 17.067-42.667 42.667v512c0 119.467 93.867 213.333 213.333 213.333h298.667c25.6 0 42.667-17.067 42.667-42.667s-17.067-42.667-42.667-42.667h-298.667c-72.533 0-128-55.467-128-128v-512c0-25.6-17.067-42.667-42.667-42.667z" />
<glyph unicode="&#xe948;" glyph-name="corner-left-up" d="M597.333 533.333c-12.8 0-21.333 4.267-29.867 12.8l-183.467 183.467-183.467-183.467c-17.067-17.067-42.667-17.067-59.733 0s-17.067 42.667 0 59.733l213.333 213.333c17.067 17.067 42.667 17.067 59.733 0l213.333-213.333c17.067-17.067 17.067-42.667 0-59.733-8.533-8.533-17.067-12.8-29.867-12.8zM853.333 64h-298.667c-119.467 0-213.333 93.867-213.333 213.333v512c0 25.6 17.067 42.667 42.667 42.667s42.667-17.067 42.667-42.667v-512c0-72.533 55.467-128 128-128h298.667c25.6 0 42.667-17.067 42.667-42.667s-17.067-42.667-42.667-42.667z" />
<glyph unicode="&#xe949;" glyph-name="corner-right-down" d="M640 64c-12.8 0-21.333 4.267-29.867 12.8l-213.333 213.333c-17.067 17.067-17.067 42.667 0 59.733s42.667 17.067 59.733 0l183.467-183.467 183.467 183.467c17.067 17.067 42.667 17.067 59.733 0s17.067-42.667 0-59.733l-213.333-213.333c-8.533-8.533-17.067-12.8-29.867-12.8zM640 64c-25.6 0-42.667 17.067-42.667 42.667v512c0 72.533-55.467 128-128 128h-298.667c-25.6 0-42.667 17.067-42.667 42.667s17.067 42.667 42.667 42.667h298.667c119.467 0 213.333-93.867 213.333-213.333v-512c0-25.6-17.067-42.667-42.667-42.667z" />
<glyph unicode="&#xe94a;" glyph-name="corner-right-up" d="M853.333 533.333c-12.8 0-21.333 4.267-29.867 12.8l-183.467 183.467-183.467-183.467c-17.067-17.067-42.667-17.067-59.733 0s-17.067 42.667 0 59.733l213.333 213.333c17.067 17.067 42.667 17.067 59.733 0l213.333-213.333c17.067-17.067 17.067-42.667 0-59.733-8.533-8.533-17.067-12.8-29.867-12.8zM469.333 64h-298.667c-25.6 0-42.667 17.067-42.667 42.667s17.067 42.667 42.667 42.667h298.667c72.533 0 128 55.467 128 128v512c0 25.6 17.067 42.667 42.667 42.667s42.667-17.067 42.667-42.667v-512c0-119.467-93.867-213.333-213.333-213.333z" />
<glyph unicode="&#xe94b;" glyph-name="corner-up-left" d="M384 320c-12.8 0-21.333 4.267-29.867 12.8l-213.333 213.333c-17.067 17.067-17.067 42.667 0 59.733l213.333 213.333c17.067 17.067 42.667 17.067 59.733 0s17.067-42.667 0-59.733l-183.467-183.467 183.467-183.467c17.067-17.067 17.067-42.667 0-59.733-8.533-8.533-17.067-12.8-29.867-12.8zM853.333 64c-25.6 0-42.667 17.067-42.667 42.667v298.667c0 72.533-55.467 128-128 128h-512c-25.6 0-42.667 17.067-42.667 42.667s17.067 42.667 42.667 42.667h512c119.467 0 213.333-93.867 213.333-213.333v-298.667c0-25.6-17.067-42.667-42.667-42.667z" />
<glyph unicode="&#xe94c;" glyph-name="corner-up-right" d="M640 320c-12.8 0-21.333 4.267-29.867 12.8-17.067 17.067-17.067 42.667 0 59.733l183.467 183.467-183.467 183.467c-17.067 17.067-17.067 42.667 0 59.733s42.667 17.067 59.733 0l213.333-213.333c17.067-17.067 17.067-42.667 0-59.733l-213.333-213.333c-8.533-8.533-17.067-12.8-29.867-12.8zM170.667 64c-25.6 0-42.667 17.067-42.667 42.667v298.667c0 119.467 93.867 213.333 213.333 213.333h512c25.6 0 42.667-17.067 42.667-42.667s-17.067-42.667-42.667-42.667h-512c-72.533 0-128-55.467-128-128v-298.667c0-25.6-17.067-42.667-42.667-42.667z" />
<glyph unicode="&#xe94d;" glyph-name="cpu" d="M768 64h-512c-72.533 0-128 55.467-128 128v512c0 72.533 55.467 128 128 128h512c72.533 0 128-55.467 128-128v-512c0-72.533-55.467-128-128-128zM256 746.667c-25.6 0-42.667-17.067-42.667-42.667v-512c0-25.6 17.067-42.667 42.667-42.667h512c25.6 0 42.667 17.067 42.667 42.667v512c0 25.6-17.067 42.667-42.667 42.667h-512zM640 277.333h-256c-25.6 0-42.667 17.067-42.667 42.667v256c0 25.6 17.067 42.667 42.667 42.667h256c25.6 0 42.667-17.067 42.667-42.667v-256c0-25.6-17.067-42.667-42.667-42.667zM426.667 362.667h170.667v170.667h-170.667v-170.667zM384 746.667c-25.6 0-42.667 17.067-42.667 42.667v128c0 25.6 17.067 42.667 42.667 42.667s42.667-17.067 42.667-42.667v-128c0-25.6-17.067-42.667-42.667-42.667zM640 746.667c-25.6 0-42.667 17.067-42.667 42.667v128c0 25.6 17.067 42.667 42.667 42.667s42.667-17.067 42.667-42.667v-128c0-25.6-17.067-42.667-42.667-42.667zM384-64c-25.6 0-42.667 17.067-42.667 42.667v128c0 25.6 17.067 42.667 42.667 42.667s42.667-17.067 42.667-42.667v-128c0-25.6-17.067-42.667-42.667-42.667zM640-64c-25.6 0-42.667 17.067-42.667 42.667v128c0 25.6 17.067 42.667 42.667 42.667s42.667-17.067 42.667-42.667v-128c0-25.6-17.067-42.667-42.667-42.667zM981.333 533.333h-128c-25.6 0-42.667 17.067-42.667 42.667s17.067 42.667 42.667 42.667h128c25.6 0 42.667-17.067 42.667-42.667s-17.067-42.667-42.667-42.667zM981.333 320h-128c-25.6 0-42.667 17.067-42.667 42.667s17.067 42.667 42.667 42.667h128c25.6 0 42.667-17.067 42.667-42.667s-17.067-42.667-42.667-42.667zM170.667 533.333h-128c-25.6 0-42.667 17.067-42.667 42.667s17.067 42.667 42.667 42.667h128c25.6 0 42.667-17.067 42.667-42.667s-17.067-42.667-42.667-42.667zM170.667 320h-128c-25.6 0-42.667 17.067-42.667 42.667s17.067 42.667 42.667 42.667h128c25.6 0 42.667-17.067 42.667-42.667s-17.067-42.667-42.667-42.667z" />
<glyph unicode="&#xe94e;" glyph-name="credit-card" d="M896 64h-768c-72.533 0-128 55.467-128 128v512c0 72.533 55.467 128 128 128h768c72.533 0 128-55.467 128-128v-512c0-72.533-55.467-128-128-128zM128 746.667c-25.6 0-42.667-17.067-42.667-42.667v-512c0-25.6 17.067-42.667 42.667-42.667h768c25.6 0 42.667 17.067 42.667 42.667v512c0 25.6-17.067 42.667-42.667 42.667h-768zM981.333 490.667h-938.667c-25.6 0-42.667 17.067-42.667 42.667s17.067 42.667 42.667 42.667h938.667c25.6 0 42.667-17.067 42.667-42.667s-17.067-42.667-42.667-42.667z" />
<glyph unicode="&#xe94f;" glyph-name="crop" d="M981.333 149.333h-640c-72.533 0-128 55.467-128 128l4.267 640c0 21.333 21.333 42.667 42.667 42.667 0 0 0 0 0 0 25.6 0 42.667-21.333 42.667-42.667l-4.267-640c0-21.333 17.067-42.667 42.667-42.667h640c25.6 0 42.667-17.067 42.667-42.667s-17.067-42.667-42.667-42.667zM768-64c-25.6 0-42.667 17.067-42.667 42.667v640c0 25.6-17.067 42.667-42.667 42.667l-640-4.267c0 0 0 0 0 0-21.333 0-42.667 17.067-42.667 42.667s17.067 42.667 42.667 42.667l640 4.267c72.533 0 128-55.467 128-128v-640c0-25.6-17.067-42.667-42.667-42.667z" />
<glyph unicode="&#xe950;" glyph-name="crosshair" d="M512-21.333c-260.267 0-469.333 209.067-469.333 469.333s209.067 469.333 469.333 469.333 469.333-209.067 469.333-469.333-209.067-469.333-469.333-469.333zM512 832c-213.333 0-384-170.667-384-384s170.667-384 384-384c213.333 0 384 170.667 384 384s-170.667 384-384 384zM938.667 405.333h-170.667c-25.6 0-42.667 17.067-42.667 42.667s17.067 42.667 42.667 42.667h170.667c25.6 0 42.667-17.067 42.667-42.667s-17.067-42.667-42.667-42.667zM256 405.333h-170.667c-25.6 0-42.667 17.067-42.667 42.667s17.067 42.667 42.667 42.667h170.667c25.6 0 42.667-17.067 42.667-42.667s-17.067-42.667-42.667-42.667zM512 661.333c-25.6 0-42.667 17.067-42.667 42.667v170.667c0 25.6 17.067 42.667 42.667 42.667s42.667-17.067 42.667-42.667v-170.667c0-25.6-17.067-42.667-42.667-42.667zM512-21.333c-25.6 0-42.667 17.067-42.667 42.667v170.667c0 25.6 17.067 42.667 42.667 42.667s42.667-17.067 42.667-42.667v-170.667c0-25.6-17.067-42.667-42.667-42.667z" />
<glyph unicode="&#xe951;" glyph-name="database" d="M512 576c-204.8 0-426.667 55.467-426.667 170.667s221.867 170.667 426.667 170.667 426.667-55.467 426.667-170.667-221.867-170.667-426.667-170.667zM512 832c-221.867 0-341.333-64-341.333-85.333s119.467-85.333 341.333-85.333c221.867 0 341.333 64 341.333 85.333s-119.467 85.333-341.333 85.333zM512 277.333c-204.8 0-426.667 55.467-426.667 170.667 0 25.6 17.067 42.667 42.667 42.667s42.667-17.067 42.667-42.667c0-21.333 106.667-85.333 341.333-85.333s341.333 64 341.333 85.333c0 25.6 17.067 42.667 42.667 42.667s42.667-17.067 42.667-42.667c0-115.2-221.867-170.667-426.667-170.667zM512-21.333c-204.8 0-426.667 55.467-426.667 170.667v597.333c0 25.6 17.067 42.667 42.667 42.667s42.667-17.067 42.667-42.667v-597.333c0-21.333 106.667-85.333 341.333-85.333s341.333 64 341.333 85.333v597.333c0 25.6 17.067 42.667 42.667 42.667s42.667-17.067 42.667-42.667v-597.333c0-115.2-221.867-170.667-426.667-170.667z" />
<glyph unicode="&#xe952;" glyph-name="delete" d="M896 64h-554.667c-12.8 0-25.6 4.267-34.133 12.8l-298.667 341.333c-12.8 17.067-12.8 38.4 0 55.467l298.667 341.333c8.533 12.8 21.333 17.067 34.133 17.067h554.667c72.533 0 128-55.467 128-128v-512c0-72.533-55.467-128-128-128zM362.667 149.333h533.333c25.6 0 42.667 17.067 42.667 42.667v512c0 25.6-17.067 42.667-42.667 42.667h-533.333l-260.267-298.667 260.267-298.667zM512 277.333c-12.8 0-21.333 4.267-29.867 12.8-17.067 17.067-17.067 42.667 0 59.733l256 256c17.067 17.067 42.667 17.067 59.733 0s17.067-42.667 0-59.733l-256-256c-8.533-8.533-17.067-12.8-29.867-12.8zM768 277.333c-12.8 0-21.333 4.267-29.867 12.8l-256 256c-17.067 17.067-17.067 42.667 0 59.733s42.667 17.067 59.733 0l256-256c17.067-17.067 17.067-42.667 0-59.733-8.533-8.533-17.067-12.8-29.867-12.8z" />
<glyph unicode="&#xe953;" glyph-name="disc" d="M512-21.333c-260.267 0-469.333 209.067-469.333 469.333s209.067 469.333 469.333 469.333 469.333-209.067 469.333-469.333-209.067-469.333-469.333-469.333zM512 832c-213.333 0-384-170.667-384-384s170.667-384 384-384c213.333 0 384 170.667 384 384s-170.667 384-384 384zM512 277.333c-93.867 0-170.667 76.8-170.667 170.667s76.8 170.667 170.667 170.667c93.867 0 170.667-76.8 170.667-170.667s-76.8-170.667-170.667-170.667zM512 533.333c-46.933 0-85.333-38.4-85.333-85.333s38.4-85.333 85.333-85.333c46.933 0 85.333 38.4 85.333 85.333s-38.4 85.333-85.333 85.333z" />
<glyph unicode="&#xe954;" glyph-name="dollar-sign" d="M512-64c-25.6 0-42.667 17.067-42.667 42.667v938.667c0 25.6 17.067 42.667 42.667 42.667s42.667-17.067 42.667-42.667v-938.667c0-25.6-17.067-42.667-42.667-42.667zM618.667 106.667h-362.667c-25.6 0-42.667 17.067-42.667 42.667s17.067 42.667 42.667 42.667h362.667c59.733 0 106.667 46.933 106.667 106.667s-46.933 106.667-106.667 106.667h-213.333c-106.667 0-192 85.333-192 192s85.333 192 192 192h320c25.6 0 42.667-17.067 42.667-42.667s-17.067-42.667-42.667-42.667h-320c-59.733 0-106.667-46.933-106.667-106.667s46.933-106.667 106.667-106.667h213.333c106.667 0 192-85.333 192-192s-85.333-192-192-192z" />
<glyph unicode="&#xe955;" glyph-name="download-cloud" d="M512 21.333c-12.8 0-21.333 4.267-29.867 12.8l-170.667 170.667c-17.067 17.067-17.067 42.667 0 59.733s42.667 17.067 59.733 0l140.8-140.8 140.8 140.8c17.067 17.067 42.667 17.067 59.733 0s17.067-42.667 0-59.733l-170.667-170.667c-8.533-8.533-17.067-12.8-29.867-12.8zM512 21.333c-25.6 0-42.667 17.067-42.667 42.667v384c0 25.6 17.067 42.667 42.667 42.667s42.667-17.067 42.667-42.667v-384c0-25.6-17.067-42.667-42.667-42.667zM891.733 145.067c-12.8 0-25.6 4.267-34.133 17.067-12.8 21.333-8.533 46.933 8.533 59.733 38.4 25.6 64 64 68.267 110.933s-4.267 89.6-29.867 128c-29.867 46.933-85.333 72.533-140.8 72.533 0 0 0 0 0 0h-55.467c-21.333 0-38.4 12.8-42.667 34.133-42.667 157.867-204.8 256-362.667 213.333-72.533-21.333-136.533-68.267-174.933-136.533-42.667-68.267-55.467-149.333-34.133-226.133 12.8-46.933 34.133-89.6 64-123.733 17.067-17.067 12.8-42.667-4.267-59.733s-42.667-12.8-59.733 4.267c-38.4 46.933-68.267 102.4-85.333 157.867-25.6 98.133-12.8 200.533 42.667 290.133 51.2 89.6 136.533 149.333 234.667 174.933 196.267 51.2 396.8-55.467 460.8-243.2h21.333c0 0 0 0 0 0 85.333 0 162.133-42.667 209.067-106.667 38.4-55.467 55.467-123.733 42.667-192s-46.933-128-106.667-166.4c-4.267-4.267-12.8-8.533-21.333-8.533z" />
<glyph unicode="&#xe956;" glyph-name="download" d="M810.667 21.333h-597.333c-72.533 0-128 55.467-128 128v170.667c0 25.6 17.067 42.667 42.667 42.667s42.667-17.067 42.667-42.667v-170.667c0-25.6 17.067-42.667 42.667-42.667h597.333c25.6 0 42.667 17.067 42.667 42.667v170.667c0 25.6 17.067 42.667 42.667 42.667s42.667-17.067 42.667-42.667v-170.667c0-72.533-55.467-128-128-128zM512 277.333c-12.8 0-21.333 4.267-29.867 12.8l-213.333 213.333c-17.067 17.067-17.067 42.667 0 59.733s42.667 17.067 59.733 0l183.467-183.467 183.467 183.467c17.067 17.067 42.667 17.067 59.733 0s17.067-42.667 0-59.733l-213.333-213.333c-8.533-8.533-17.067-12.8-29.867-12.8zM512 277.333c-25.6 0-42.667 17.067-42.667 42.667v512c0 25.6 17.067 42.667 42.667 42.667s42.667-17.067 42.667-42.667v-512c0-25.6-17.067-42.667-42.667-42.667z" />
<glyph unicode="&#xe957;" glyph-name="droplet" d="M512-21.333c-102.4 0-200.533 38.4-273.067 110.933s-110.933 170.667-110.933 273.067c0 102.4 38.4 200.533 110.933 273.067 0 0 0 0 0 0l243.2 238.933c8.533 8.533 17.067 12.8 29.867 12.8v0c12.8 0 21.333-4.267 29.867-12.8l243.2-243.2c149.333-149.333 149.333-392.533 0-541.867-72.533-72.533-170.667-110.933-273.067-110.933 0 0 0 0 0 0zM298.667 571.733c-55.467-55.467-85.333-132.267-85.333-209.067 0-81.067 29.867-153.6 89.6-209.067 55.467-55.467 132.267-85.333 209.067-85.333 0 0 0 0 0 0 81.067 0 153.6 29.867 209.067 89.6 115.2 115.2 115.2 307.2 0 422.4l-213.333 213.333-209.067-221.867c4.267 0 0 0 0 0zM273.067 601.6v0 0z" />
<glyph unicode="&#xe958;" glyph-name="edit-2" d="M341.333 21.333h-213.333c-25.6 0-42.667 17.067-42.667 42.667v213.333c0 12.8 4.267 21.333 12.8 29.867l554.667 554.667c17.067 17.067 42.667 17.067 59.733 0l213.333-213.333c17.067-17.067 17.067-42.667 0-59.733l-554.667-554.667c-8.533-8.533-17.067-12.8-29.867-12.8zM170.667 106.667h153.6l512 512-153.6 153.6-512-512v-153.6z" />
<glyph unicode="&#xe959;" glyph-name="edit-3" d="M298.667 192h-170.667c-25.6 0-42.667 17.067-42.667 42.667v170.667c0 12.8 4.267 21.333 12.8 29.867l469.333 469.333c17.067 17.067 42.667 17.067 59.733 0l170.667-170.667c17.067-17.067 17.067-42.667 0-59.733l-469.333-469.333c-8.533-8.533-17.067-12.8-29.867-12.8zM170.667 277.333h110.933l426.667 426.667-110.933 110.933-426.667-426.667v-110.933zM896-21.333h-768c-25.6 0-42.667 17.067-42.667 42.667s17.067 42.667 42.667 42.667h768c25.6 0 42.667-17.067 42.667-42.667s-17.067-42.667-42.667-42.667z" />
<glyph unicode="&#xe95a;" glyph-name="edit" d="M768-21.333h-597.333c-72.533 0-128 55.467-128 128v597.333c0 72.533 55.467 128 128 128h226.133c25.6 0 42.667-17.067 42.667-42.667s-17.067-42.667-42.667-42.667h-226.133c-25.6 0-42.667-17.067-42.667-42.667v-597.333c0-25.6 17.067-42.667 42.667-42.667h597.333c25.6 0 42.667 17.067 42.667 42.667v226.133c0 25.6 17.067 42.667 42.667 42.667s42.667-17.067 42.667-42.667v-226.133c0-72.533-55.467-128-128-128zM512 234.667h-170.667c-25.6 0-42.667 17.067-42.667 42.667v170.667c0 12.8 4.267 21.333 12.8 29.867l426.667 426.667c17.067 17.067 42.667 17.067 59.733 0l170.667-170.667c17.067-17.067 17.067-42.667 0-59.733l-426.667-426.667c-8.533-8.533-17.067-12.8-29.867-12.8zM384 320h110.933l384 384-110.933 110.933-384-384v-110.933z" />
<glyph unicode="&#xe95b;" glyph-name="external-link" d="M682.667 21.333h-469.333c-72.533 0-128 55.467-128 128v469.333c0 72.533 55.467 128 128 128h256c25.6 0 42.667-17.067 42.667-42.667s-17.067-42.667-42.667-42.667h-256c-25.6 0-42.667-17.067-42.667-42.667v-469.333c0-25.6 17.067-42.667 42.667-42.667h469.333c25.6 0 42.667 17.067 42.667 42.667v256c0 25.6 17.067 42.667 42.667 42.667s42.667-17.067 42.667-42.667v-256c0-72.533-55.467-128-128-128zM896 533.333c-25.6 0-42.667 17.067-42.667 42.667v213.333h-213.333c-25.6 0-42.667 17.067-42.667 42.667s17.067 42.667 42.667 42.667h256c25.6 0 42.667-17.067 42.667-42.667v-256c0-25.6-17.067-42.667-42.667-42.667zM426.667 320c-12.8 0-21.333 4.267-29.867 12.8-17.067 17.067-17.067 42.667 0 59.733l469.333 469.333c17.067 17.067 42.667 17.067 59.733 0s17.067-42.667 0-59.733l-469.333-469.333c-8.533-8.533-17.067-12.8-29.867-12.8z" />
<glyph unicode="&#xe95c;" glyph-name="eye-off" d="M512 64c-320 0-499.2 349.867-507.733 366.933-4.267 12.8-4.267 25.6 0 38.4 55.467 102.4 132.267 192 230.4 264.533 17.067 17.067 42.667 12.8 59.733-8.533 12.8-17.067 12.8-46.933-8.533-59.733-81.067-59.733-145.067-132.267-196.267-217.6 38.4-68.267 192-298.667 422.4-298.667 81.067 0 162.133 29.867 226.133 81.067 17.067 12.8 46.933 8.533 59.733-8.533s8.533-46.933-8.533-59.733c-76.8-64-174.933-98.133-277.333-98.133zM887.467 268.8c-8.533 0-21.333 4.267-25.6 8.533-17.067 17.067-21.333 42.667-4.267 59.733 29.867 34.133 55.467 68.267 76.8 106.667-38.4 68.267-192 298.667-422.4 298.667-25.6 0-55.467-4.267-81.067-8.533-21.333 0-42.667 12.8-51.2 34.133-4.267 25.6 8.533 46.933 34.133 51.2 29.867 8.533 64 12.8 98.133 12.8 320 0 499.2-349.867 507.733-366.933 4.267-12.8 4.267-25.6 0-38.4-25.6-51.2-59.733-98.133-98.133-145.067-8.533-8.533-21.333-12.8-34.133-12.8zM507.733 273.067c-42.667 0-85.333 17.067-115.2 46.933-34.133 29.867-51.2 72.533-55.467 119.467 0 46.933 12.8 89.6 46.933 123.733 4.267 4.267 4.267 4.267 8.533 8.533 17.067 17.067 42.667 17.067 59.733 0s17.067-42.667 0-59.733c0 0-4.267-4.267-4.267-4.267-17.067-17.067-25.6-38.4-21.333-59.733 0-21.333 8.533-42.667 25.6-59.733s38.4-25.6 59.733-21.333c21.333 0 42.667 8.533 59.733 25.6s42.667 17.067 59.733 0c17.067-17.067 17.067-42.667 0-59.733-29.867-34.133-72.533-51.2-119.467-55.467 0-4.267 0-4.267-4.267-4.267zM981.333-64c-12.8 0-21.333 4.267-29.867 12.8l-938.667 938.667c-17.067 17.067-17.067 42.667 0 59.733s42.667 17.067 59.733 0l938.667-938.667c17.067-17.067 17.067-42.667 0-59.733-8.533-8.533-17.067-12.8-29.867-12.8z" />
<glyph unicode="&#xe95d;" glyph-name="eye" d="M512 64c-320 0-499.2 349.867-507.733 366.933-4.267 12.8-4.267 25.6 0 38.4 8.533 12.8 187.733 362.667 507.733 362.667s499.2-349.867 507.733-366.933c4.267-12.8 4.267-25.6 0-38.4-8.533-12.8-187.733-362.667-507.733-362.667zM89.6 448c38.4-68.267 192-298.667 422.4-298.667s379.733 230.4 422.4 298.667c-38.4 68.267-192 298.667-422.4 298.667s-379.733-230.4-422.4-298.667zM512 277.333c-93.867 0-170.667 76.8-170.667 170.667s76.8 170.667 170.667 170.667c93.867 0 170.667-76.8 170.667-170.667s-76.8-170.667-170.667-170.667zM512 533.333c-46.933 0-85.333-38.4-85.333-85.333s38.4-85.333 85.333-85.333c46.933 0 85.333 38.4 85.333 85.333s-38.4 85.333-85.333 85.333z" />
<glyph unicode="&#xe95e;" glyph-name="facebook" d="M597.333-21.333h-170.667c-25.6 0-42.667 17.067-42.667 42.667v298.667h-85.333c-25.6 0-42.667 17.067-42.667 42.667v170.667c0 25.6 17.067 42.667 42.667 42.667h85.333v85.333c0 140.8 115.2 256 256 256h128c25.6 0 42.667-17.067 42.667-42.667v-170.667c0-25.6-17.067-42.667-42.667-42.667h-128v-85.333h128c12.8 0 25.6-4.267 34.133-17.067s8.533-21.333 8.533-34.133l-42.667-170.667c-4.267-17.067-21.333-34.133-42.667-34.133h-85.333v-298.667c0-25.6-17.067-42.667-42.667-42.667zM469.333 64h85.333v298.667c0 25.6 17.067 42.667 42.667 42.667h93.867l21.333 85.333h-115.2c-25.6 0-42.667 17.067-42.667 42.667v128c0 46.933 38.4 85.333 85.333 85.333h85.333v85.333h-85.333c-93.867 0-170.667-76.8-170.667-170.667v-128c0-25.6-17.067-42.667-42.667-42.667h-85.333v-85.333h85.333c25.6 0 42.667-17.067 42.667-42.667v-298.667z" />
<glyph unicode="&#xe95f;" glyph-name="fast-forward" d="M554.667 106.667c-4.267 0-12.8 0-17.067 4.267-17.067 8.533-25.6 21.333-25.6 38.4v597.333c0 17.067 8.533 29.867 25.6 38.4 12.8 8.533 34.133 4.267 46.933-4.267l384-298.667c8.533-8.533 17.067-21.333 17.067-34.133s-4.267-25.6-17.067-34.133l-384-298.667c-12.8-4.267-21.333-8.533-29.867-8.533zM597.333 661.333v-426.667l273.067 213.333-273.067 213.333zM85.333 106.667c-4.267 0-12.8 0-17.067 4.267-17.067 8.533-25.6 21.333-25.6 38.4v597.333c0 17.067 8.533 29.867 25.6 38.4 12.8 8.533 29.867 4.267 42.667-4.267l384-298.667c8.533-8.533 17.067-21.333 17.067-34.133s-4.267-25.6-17.067-34.133l-384-298.667c-8.533-4.267-17.067-8.533-25.6-8.533zM128 661.333v-426.667l273.067 213.333-273.067 213.333z" />
<glyph unicode="&#xe960;" glyph-name="feather" d="M576 106.667h-362.667c-25.6 0-42.667 17.067-42.667 42.667v362.667c0 12.8 4.267 21.333 12.8 29.867l285.867 290.133c115.2 115.2 307.2 115.2 422.4 0s115.2-307.2 0-422.4l-285.867-290.133c-8.533-8.533-17.067-12.8-29.867-12.8zM256 192h302.933l273.067 277.333c0 0 0 0 0 0 85.333 85.333 85.333 217.6 0 302.933s-217.6 85.333-302.933 0l-273.067-277.333v-302.933zM85.333-21.333c-12.8 0-21.333 4.267-29.867 12.8-17.067 17.067-17.067 42.667 0 59.733l597.333 597.333c17.067 17.067 42.667 17.067 59.733 0s17.067-42.667 0-59.733l-597.333-597.333c-8.533-8.533-17.067-12.8-29.867-12.8zM725.333 277.333h-341.333c-25.6 0-42.667 17.067-42.667 42.667s17.067 42.667 42.667 42.667h341.333c25.6 0 42.667-17.067 42.667-42.667s-17.067-42.667-42.667-42.667z" />
<glyph unicode="&#xe961;" glyph-name="file-minus" d="M768-21.333h-512c-72.533 0-128 55.467-128 128v682.667c0 72.533 55.467 128 128 128h341.333c12.8 0 21.333-4.267 29.867-12.8l256-256c8.533-8.533 12.8-17.067 12.8-29.867v-512c0-72.533-55.467-128-128-128zM256 832c-25.6 0-42.667-17.067-42.667-42.667v-682.667c0-25.6 17.067-42.667 42.667-42.667h512c25.6 0 42.667 17.067 42.667 42.667v494.933l-230.4 230.4h-324.267zM853.333 576h-256c-25.6 0-42.667 17.067-42.667 42.667v256c0 25.6 17.067 42.667 42.667 42.667s42.667-17.067 42.667-42.667v-213.333h213.333c25.6 0 42.667-17.067 42.667-42.667s-17.067-42.667-42.667-42.667zM640 277.333h-256c-25.6 0-42.667 17.067-42.667 42.667s17.067 42.667 42.667 42.667h256c25.6 0 42.667-17.067 42.667-42.667s-17.067-42.667-42.667-42.667z" />
<glyph unicode="&#xe962;" glyph-name="file-plus" d="M768-21.333h-512c-72.533 0-128 55.467-128 128v682.667c0 72.533 55.467 128 128 128h341.333c12.8 0 21.333-4.267 29.867-12.8l256-256c8.533-8.533 12.8-17.067 12.8-29.867v-512c0-72.533-55.467-128-128-128zM256 832c-25.6 0-42.667-17.067-42.667-42.667v-682.667c0-25.6 17.067-42.667 42.667-42.667h512c25.6 0 42.667 17.067 42.667 42.667v494.933l-230.4 230.4h-324.267zM853.333 576h-256c-25.6 0-42.667 17.067-42.667 42.667v256c0 25.6 17.067 42.667 42.667 42.667s42.667-17.067 42.667-42.667v-213.333h213.333c25.6 0 42.667-17.067 42.667-42.667s-17.067-42.667-42.667-42.667zM512 149.333c-25.6 0-42.667 17.067-42.667 42.667v256c0 25.6 17.067 42.667 42.667 42.667s42.667-17.067 42.667-42.667v-256c0-25.6-17.067-42.667-42.667-42.667zM640 277.333h-256c-25.6 0-42.667 17.067-42.667 42.667s17.067 42.667 42.667 42.667h256c25.6 0 42.667-17.067 42.667-42.667s-17.067-42.667-42.667-42.667z" />
<glyph unicode="&#xe963;" glyph-name="file-text" d="M768-21.333h-512c-72.533 0-128 55.467-128 128v682.667c0 72.533 55.467 128 128 128h341.333c12.8 0 21.333-4.267 29.867-12.8l256-256c8.533-8.533 12.8-17.067 12.8-29.867v-512c0-72.533-55.467-128-128-128zM256 832c-25.6 0-42.667-17.067-42.667-42.667v-682.667c0-25.6 17.067-42.667 42.667-42.667h512c25.6 0 42.667 17.067 42.667 42.667v494.933l-230.4 230.4h-324.267zM853.333 576h-256c-25.6 0-42.667 17.067-42.667 42.667v256c0 25.6 17.067 42.667 42.667 42.667s42.667-17.067 42.667-42.667v-213.333h213.333c25.6 0 42.667-17.067 42.667-42.667s-17.067-42.667-42.667-42.667zM682.667 362.667h-341.333c-25.6 0-42.667 17.067-42.667 42.667s17.067 42.667 42.667 42.667h341.333c25.6 0 42.667-17.067 42.667-42.667s-17.067-42.667-42.667-42.667zM682.667 192h-341.333c-25.6 0-42.667 17.067-42.667 42.667s17.067 42.667 42.667 42.667h341.333c25.6 0 42.667-17.067 42.667-42.667s-17.067-42.667-42.667-42.667zM426.667 533.333h-85.333c-25.6 0-42.667 17.067-42.667 42.667s17.067 42.667 42.667 42.667h85.333c25.6 0 42.667-17.067 42.667-42.667s-17.067-42.667-42.667-42.667z" />
<glyph unicode="&#xe964;" glyph-name="file" d="M768-21.333h-512c-72.533 0-128 55.467-128 128v682.667c0 72.533 55.467 128 128 128h298.667c12.8 0 21.333-4.267 29.867-12.8l298.667-298.667c8.533-8.533 12.8-17.067 12.8-29.867v-469.333c0-72.533-55.467-128-128-128zM256 832c-25.6 0-42.667-17.067-42.667-42.667v-682.667c0-25.6 17.067-42.667 42.667-42.667h512c25.6 0 42.667 17.067 42.667 42.667v452.267l-273.067 273.067h-281.6zM853.333 533.333h-298.667c-25.6 0-42.667 17.067-42.667 42.667v298.667c0 25.6 17.067 42.667 42.667 42.667s42.667-17.067 42.667-42.667v-256h256c25.6 0 42.667-17.067 42.667-42.667s-17.067-42.667-42.667-42.667z" />
<glyph unicode="&#xe965;" glyph-name="film" d="M844.8-21.333h-665.6c-76.8 0-136.533 59.733-136.533 136.533v665.6c0 76.8 59.733 136.533 136.533 136.533h665.6c76.8 0 136.533-59.733 136.533-136.533v-665.6c0-76.8-59.733-136.533-136.533-136.533zM179.2 832c-29.867 0-51.2-21.333-51.2-51.2v-665.6c0-29.867 21.333-51.2 51.2-51.2h665.6c29.867 0 51.2 21.333 51.2 51.2v665.6c0 29.867-21.333 51.2-51.2 51.2h-665.6zM298.667-21.333c-25.6 0-42.667 17.067-42.667 42.667v853.333c0 25.6 17.067 42.667 42.667 42.667s42.667-17.067 42.667-42.667v-853.333c0-25.6-17.067-42.667-42.667-42.667zM725.333-21.333c-25.6 0-42.667 17.067-42.667 42.667v853.333c0 25.6 17.067 42.667 42.667 42.667s42.667-17.067 42.667-42.667v-853.333c0-25.6-17.067-42.667-42.667-42.667zM938.667 405.333h-853.333c-25.6 0-42.667 17.067-42.667 42.667s17.067 42.667 42.667 42.667h853.333c25.6 0 42.667-17.067 42.667-42.667s-17.067-42.667-42.667-42.667zM298.667 618.667h-213.333c-25.6 0-42.667 17.067-42.667 42.667s17.067 42.667 42.667 42.667h213.333c25.6 0 42.667-17.067 42.667-42.667s-17.067-42.667-42.667-42.667zM298.667 192h-213.333c-25.6 0-42.667 17.067-42.667 42.667s17.067 42.667 42.667 42.667h213.333c25.6 0 42.667-17.067 42.667-42.667s-17.067-42.667-42.667-42.667zM938.667 192h-213.333c-25.6 0-42.667 17.067-42.667 42.667s17.067 42.667 42.667 42.667h213.333c25.6 0 42.667-17.067 42.667-42.667s-17.067-42.667-42.667-42.667zM938.667 618.667h-213.333c-25.6 0-42.667 17.067-42.667 42.667s17.067 42.667 42.667 42.667h213.333c25.6 0 42.667-17.067 42.667-42.667s-17.067-42.667-42.667-42.667z" />
<glyph unicode="&#xe966;" glyph-name="filter" d="M597.333 21.333c-8.533 0-12.8 0-17.067 4.267l-170.667 85.333c-17.067 8.533-25.6 21.333-25.6 38.4v264.533l-332.8 392.533c-8.533 12.8-12.8 29.867-4.267 42.667 8.533 17.067 21.333 25.6 38.4 25.6h853.333c17.067 0 29.867-8.533 38.4-25.6s4.267-34.133-4.267-46.933l-332.8-388.267v-349.867c0-12.8-8.533-29.867-21.333-38.4-4.267-4.267-12.8-4.267-21.333-4.267zM469.333 174.933l85.333-42.667v294.4c0 8.533 4.267 21.333 8.533 25.6l281.6 337.067h-665.6l281.6-332.8c8.533-8.533 8.533-17.067 8.533-25.6v-256z" />
<glyph unicode="&#xe967;" glyph-name="flag" d="M682.667 234.667c-72.533 0-132.267 21.333-187.733 46.933-51.2 17.067-98.133 38.4-153.6 38.4-102.4 0-140.8-29.867-140.8-29.867-12.8-12.8-29.867-17.067-46.933-8.533s-25.6 21.333-25.6 38.4v512c0 12.8 4.267 21.333 12.8 29.867s64 55.467 200.533 55.467c72.533 0 132.267-21.333 187.733-46.933 51.2-17.067 98.133-38.4 153.6-38.4 102.4 0 140.8 29.867 140.8 29.867 12.8 12.8 29.867 17.067 46.933 8.533s25.6-21.333 25.6-38.4v-512c0-12.8-4.267-21.333-12.8-29.867s-64-55.467-200.533-55.467zM341.333 405.333c72.533 0 132.267-21.333 187.733-46.933 51.2-21.333 98.133-38.4 153.6-38.4 68.267 0 110.933 12.8 128 21.333v422.4c-29.867-8.533-72.533-17.067-128-17.067-72.533 0-132.267 21.333-187.733 46.933-51.2 17.067-98.133 38.4-153.6 38.4-68.267 0-110.933-12.8-128-21.333v-422.4c29.867 8.533 72.533 17.067 128 17.067zM170.667-21.333c-25.6 0-42.667 17.067-42.667 42.667v298.667c0 25.6 17.067 42.667 42.667 42.667s42.667-17.067 42.667-42.667v-298.667c0-25.6-17.067-42.667-42.667-42.667z" />
<glyph unicode="&#xe968;" glyph-name="folder-minus" d="M853.333 21.333h-682.667c-72.533 0-128 55.467-128 128v597.333c0 72.533 55.467 128 128 128h213.333c12.8 0 25.6-8.533 34.133-17.067l72.533-110.933h362.667c72.533 0 128-55.467 128-128v-469.333c0-72.533-55.467-128-128-128zM170.667 789.333c-25.6 0-42.667-17.067-42.667-42.667v-597.333c0-25.6 17.067-42.667 42.667-42.667h682.667c25.6 0 42.667 17.067 42.667 42.667v469.333c0 25.6-17.067 42.667-42.667 42.667h-384c-12.8 0-25.6 8.533-34.133 17.067l-72.533 110.933h-192zM640 320h-256c-25.6 0-42.667 17.067-42.667 42.667s17.067 42.667 42.667 42.667h256c25.6 0 42.667-17.067 42.667-42.667s-17.067-42.667-42.667-42.667z" />
<glyph unicode="&#xe969;" glyph-name="folder-plus" d="M853.333 21.333h-682.667c-72.533 0-128 55.467-128 128v597.333c0 72.533 55.467 128 128 128h213.333c12.8 0 25.6-8.533 34.133-17.067l72.533-110.933h362.667c72.533 0 128-55.467 128-128v-469.333c0-72.533-55.467-128-128-128zM170.667 789.333c-25.6 0-42.667-17.067-42.667-42.667v-597.333c0-25.6 17.067-42.667 42.667-42.667h682.667c25.6 0 42.667 17.067 42.667 42.667v469.333c0 25.6-17.067 42.667-42.667 42.667h-384c-12.8 0-25.6 8.533-34.133 17.067l-72.533 110.933h-192zM512 192c-25.6 0-42.667 17.067-42.667 42.667v256c0 25.6 17.067 42.667 42.667 42.667s42.667-17.067 42.667-42.667v-256c0-25.6-17.067-42.667-42.667-42.667zM640 320h-256c-25.6 0-42.667 17.067-42.667 42.667s17.067 42.667 42.667 42.667h256c25.6 0 42.667-17.067 42.667-42.667s-17.067-42.667-42.667-42.667z" />
<glyph unicode="&#xe96a;" glyph-name="folder" d="M853.333 21.333h-682.667c-72.533 0-128 55.467-128 128v597.333c0 72.533 55.467 128 128 128h213.333c12.8 0 25.6-8.533 34.133-17.067l72.533-110.933h362.667c72.533 0 128-55.467 128-128v-469.333c0-72.533-55.467-128-128-128zM170.667 789.333c-25.6 0-42.667-17.067-42.667-42.667v-597.333c0-25.6 17.067-42.667 42.667-42.667h682.667c25.6 0 42.667 17.067 42.667 42.667v469.333c0 25.6-17.067 42.667-42.667 42.667h-384c-12.8 0-25.6 8.533-34.133 17.067l-72.533 110.933h-192z" />
<glyph unicode="&#xe96b;" glyph-name="gift" d="M853.333-21.333h-682.667c-25.6 0-42.667 17.067-42.667 42.667v426.667c0 25.6 17.067 42.667 42.667 42.667s42.667-17.067 42.667-42.667v-384h597.333v384c0 25.6 17.067 42.667 42.667 42.667s42.667-17.067 42.667-42.667v-426.667c0-25.6-17.067-42.667-42.667-42.667zM938.667 405.333h-853.333c-25.6 0-42.667 17.067-42.667 42.667v213.333c0 25.6 17.067 42.667 42.667 42.667h853.333c25.6 0 42.667-17.067 42.667-42.667v-213.333c0-25.6-17.067-42.667-42.667-42.667zM128 490.667h768v128h-768v-128zM512-21.333c-25.6 0-42.667 17.067-42.667 42.667v640c0 25.6 17.067 42.667 42.667 42.667s42.667-17.067 42.667-42.667v-640c0-25.6-17.067-42.667-42.667-42.667zM512 618.667h-192c-81.067 0-149.333 68.267-149.333 149.333s68.267 149.333 149.333 149.333c183.467 0 230.4-238.933 234.667-247.467 4.267-12.8 0-25.6-8.533-34.133-8.533-12.8-21.333-17.067-34.133-17.067zM320 832c-34.133 0-64-29.867-64-64s29.867-64 64-64h136.533c-21.333 51.2-64 128-136.533 128zM704 618.667h-192c-12.8 0-25.6 4.267-34.133 17.067-8.533 8.533-8.533 21.333-8.533 34.133 0 8.533 51.2 247.467 234.667 247.467 81.067 0 149.333-68.267 149.333-149.333s-68.267-149.333-149.333-149.333zM567.467 704h136.533c34.133 0 64 29.867 64 64s-29.867 64-64 64c-72.533 0-115.2-76.8-136.533-128z" />
<glyph unicode="&#xe96c;" glyph-name="git-branch" d="M256 277.333c-25.6 0-42.667 17.067-42.667 42.667v512c0 25.6 17.067 42.667 42.667 42.667s42.667-17.067 42.667-42.667v-512c0-25.6-17.067-42.667-42.667-42.667zM768 533.333c-93.867 0-170.667 76.8-170.667 170.667s76.8 170.667 170.667 170.667 170.667-76.8 170.667-170.667-76.8-170.667-170.667-170.667zM768 789.333c-46.933 0-85.333-38.4-85.333-85.333s38.4-85.333 85.333-85.333 85.333 38.4 85.333 85.333-38.4 85.333-85.333 85.333zM256 21.333c-93.867 0-170.667 76.8-170.667 170.667s76.8 170.667 170.667 170.667 170.667-76.8 170.667-170.667-76.8-170.667-170.667-170.667zM256 277.333c-46.933 0-85.333-38.4-85.333-85.333s38.4-85.333 85.333-85.333 85.333 38.4 85.333 85.333-38.4 85.333-85.333 85.333zM384 149.333c-25.6 0-42.667 17.067-42.667 42.667s17.067 42.667 42.667 42.667c187.733 0 341.333 153.6 341.333 341.333 0 25.6 17.067 42.667 42.667 42.667s42.667-17.067 42.667-42.667c0-234.667-192-426.667-426.667-426.667z" />
<glyph unicode="&#xe96d;" glyph-name="git-commit" d="M512 234.667c-119.467 0-213.333 93.867-213.333 213.333s93.867 213.333 213.333 213.333 213.333-93.867 213.333-213.333-93.867-213.333-213.333-213.333zM512 576c-72.533 0-128-55.467-128-128s55.467-128 128-128 128 55.467 128 128-55.467 128-128 128zM298.667 405.333h-256c-25.6 0-42.667 17.067-42.667 42.667s17.067 42.667 42.667 42.667h256c25.6 0 42.667-17.067 42.667-42.667s-17.067-42.667-42.667-42.667zM981.333 405.333h-256c-25.6 0-42.667 17.067-42.667 42.667s17.067 42.667 42.667 42.667h256c25.6 0 42.667-17.067 42.667-42.667s-21.333-42.667-42.667-42.667z" />
<glyph unicode="&#xe96e;" glyph-name="git-merge" d="M768 21.333c-93.867 0-170.667 76.8-170.667 170.667s76.8 170.667 170.667 170.667 170.667-76.8 170.667-170.667-76.8-170.667-170.667-170.667zM768 277.333c-46.933 0-85.333-38.4-85.333-85.333s38.4-85.333 85.333-85.333 85.333 38.4 85.333 85.333-38.4 85.333-85.333 85.333zM256 533.333c-93.867 0-170.667 76.8-170.667 170.667s76.8 170.667 170.667 170.667 170.667-76.8 170.667-170.667-76.8-170.667-170.667-170.667zM256 789.333c-46.933 0-85.333-38.4-85.333-85.333s38.4-85.333 85.333-85.333 85.333 38.4 85.333 85.333-38.4 85.333-85.333 85.333zM256 21.333c-25.6 0-42.667 17.067-42.667 42.667v512c0 25.6 17.067 42.667 42.667 42.667s42.667-17.067 42.667-42.667c0-187.733 153.6-341.333 341.333-341.333 25.6 0 42.667-17.067 42.667-42.667s-17.067-42.667-42.667-42.667c-140.8 0-264.533 68.267-341.333 170.667v-256c0-25.6-17.067-42.667-42.667-42.667z" />
<glyph unicode="&#xe96f;" glyph-name="git-pull-request" d="M768 21.333c-93.867 0-170.667 76.8-170.667 170.667s76.8 170.667 170.667 170.667 170.667-76.8 170.667-170.667-76.8-170.667-170.667-170.667zM768 277.333c-46.933 0-85.333-38.4-85.333-85.333s38.4-85.333 85.333-85.333 85.333 38.4 85.333 85.333-38.4 85.333-85.333 85.333zM256 533.333c-93.867 0-170.667 76.8-170.667 170.667s76.8 170.667 170.667 170.667 170.667-76.8 170.667-170.667-76.8-170.667-170.667-170.667zM256 789.333c-46.933 0-85.333-38.4-85.333-85.333s38.4-85.333 85.333-85.333 85.333 38.4 85.333 85.333-38.4 85.333-85.333 85.333zM768 277.333c-25.6 0-42.667 17.067-42.667 42.667v298.667c0 25.6-17.067 42.667-42.667 42.667h-128c-25.6 0-42.667 17.067-42.667 42.667s17.067 42.667 42.667 42.667h128c72.533 0 128-55.467 128-128v-298.667c0-25.6-17.067-42.667-42.667-42.667zM256 21.333c-25.6 0-42.667 17.067-42.667 42.667v512c0 25.6 17.067 42.667 42.667 42.667s42.667-17.067 42.667-42.667v-512c0-25.6-17.067-42.667-42.667-42.667z" />
<glyph unicode="&#xe970;" glyph-name="github" d="M682.667-21.333c-25.6 0-42.667 17.067-42.667 42.667v166.4c4.267 34.133-8.533 59.733-29.867 81.067-12.8 12.8-17.067 29.867-8.533 42.667 4.267 17.067 21.333 25.6 34.133 29.867 123.733 12.8 238.933 55.467 238.933 256 0 46.933-17.067 93.867-51.2 132.267-12.8 12.8-12.8 29.867-8.533 42.667 12.8 34.133 12.8 68.267 4.267 102.4-21.333-4.267-55.467-17.067-110.933-55.467-8.533-8.533-21.333-8.533-34.133-4.267-89.6 25.6-187.733 25.6-277.333 0-12.8-4.267-25.6-4.267-38.4 4.267-51.2 38.4-89.6 51.2-110.933 55.467-8.533-34.133-8.533-68.267 4.267-102.4 4.267-17.067 4.267-34.133-8.533-42.667-34.133-38.4-51.2-85.333-51.2-132.267 0-200.533 115.2-243.2 238.933-256 17.067 0 29.867-12.8 34.133-29.867s0-34.133-8.533-42.667c-21.333-21.333-29.867-46.933-29.867-76.8v-38.4c0 0 0-4.267 0-4.267v-123.733c0-25.6-17.067-42.667-42.667-42.667s-42.667 17.067-42.667 42.667v72.533c-128-21.333-183.467 51.2-221.867 98.133-17.067 21.333-29.867 38.4-46.933 42.667-21.333 4.267-38.4 29.867-29.867 51.2 4.267 21.333 29.867 38.4 51.2 29.867 42.667-12.8 68.267-42.667 93.867-72.533 34.133-46.933 64-81.067 153.6-64v4.267c0 25.6 4.267 55.467 12.8 76.8-119.467 25.6-247.467 102.4-247.467 328.533 0 64 21.333 123.733 59.733 170.667-17.067 59.733-12.8 115.2 12.8 170.667 4.267 12.8 12.8 21.333 25.6 25.6 17.067 4.267 72.533 12.8 187.733-59.733 93.867 21.333 192 21.333 281.6 0 110.933 72.533 170.667 64 187.733 59.733 12.8-4.267 21.333-12.8 25.6-25.6 21.333-55.467 25.6-110.933 12.8-166.4 38.4-46.933 59.733-106.667 59.733-170.667 0-243.2-145.067-307.2-247.467-332.8 8.533-25.6 12.8-55.467 12.8-81.067v-162.133c0-25.6-17.067-42.667-42.667-42.667z" />
<glyph unicode="&#xe971;" glyph-name="gitlab" d="M512-25.6c-8.533 0-17.067 4.267-25.6 8.533l-452.267 328.533c-25.6 21.333-38.4 55.467-29.867 89.6l157.867 477.867c4.267 12.8 8.533 21.333 12.8 25.6 21.333 21.333 59.733 21.333 81.067 0 8.533-8.533 12.8-17.067 17.067-25.6l93.867-290.133h281.6l93.867 290.133c4.267 12.8 8.533 17.067 17.067 25.6 25.6 21.333 59.733 21.333 81.067 0 8.533-8.533 12.8-17.067 17.067-25.6l157.867-477.867c8.533-34.133-4.267-68.267-29.867-89.6l-452.267-328.533c-4.267-8.533-12.8-8.533-21.333-8.533zM85.333 375.467l426.667-307.2 426.667 311.467-51.2 153.6-81.067 247.467-81.067-247.467c-4.267-17.067-21.333-29.867-42.667-29.867h-341.333c-17.067 0-34.133 12.8-42.667 29.867l-81.067 247.467-132.267-405.333zM85.333 371.2v0c0 0 0 0 0 0zM196.267 853.333c0 0 0 0 0 0v0zM780.8 853.333c0 0 0 0 0 0v0z" />
<glyph unicode="&#xe972;" glyph-name="globe" d="M512-21.333c-260.267 0-469.333 209.067-469.333 469.333s209.067 469.333 469.333 469.333 469.333-209.067 469.333-469.333-209.067-469.333-469.333-469.333zM512 832c-213.333 0-384-170.667-384-384s170.667-384 384-384c213.333 0 384 170.667 384 384s-170.667 384-384 384zM938.667 405.333h-853.333c-25.6 0-42.667 17.067-42.667 42.667s17.067 42.667 42.667 42.667h853.333c25.6 0 42.667-17.067 42.667-42.667s-17.067-42.667-42.667-42.667zM512-21.333c-12.8 0-21.333 4.267-29.867 12.8-115.2 123.733-179.2 285.867-183.467 456.533 4.267 170.667 68.267 332.8 183.467 456.533 8.533 8.533 17.067 12.8 29.867 12.8v0c12.8 0 21.333-4.267 29.867-12.8 115.2-123.733 179.2-285.867 183.467-456.533-4.267-170.667-68.267-332.8-183.467-456.533-8.533-8.533-17.067-12.8-29.867-12.8zM512 806.4c-81.067-102.4-123.733-226.133-128-358.4 4.267-128 46.933-256 128-358.4 81.067 102.4 123.733 230.4 128 362.667-4.267 128-46.933 251.733-128 354.133z" />
<glyph unicode="&#xe973;" glyph-name="grid" d="M426.667 490.667h-298.667c-25.6 0-42.667 17.067-42.667 42.667v298.667c0 25.6 17.067 42.667 42.667 42.667h298.667c25.6 0 42.667-17.067 42.667-42.667v-298.667c0-25.6-17.067-42.667-42.667-42.667zM170.667 576h213.333v213.333h-213.333v-213.333zM896 490.667h-298.667c-25.6 0-42.667 17.067-42.667 42.667v298.667c0 25.6 17.067 42.667 42.667 42.667h298.667c25.6 0 42.667-17.067 42.667-42.667v-298.667c0-25.6-17.067-42.667-42.667-42.667zM640 576h213.333v213.333h-213.333v-213.333zM896 21.333h-298.667c-25.6 0-42.667 17.067-42.667 42.667v298.667c0 25.6 17.067 42.667 42.667 42.667h298.667c25.6 0 42.667-17.067 42.667-42.667v-298.667c0-25.6-17.067-42.667-42.667-42.667zM640 106.667h213.333v213.333h-213.333v-213.333zM426.667 21.333h-298.667c-25.6 0-42.667 17.067-42.667 42.667v298.667c0 25.6 17.067 42.667 42.667 42.667h298.667c25.6 0 42.667-17.067 42.667-42.667v-298.667c0-25.6-17.067-42.667-42.667-42.667zM170.667 106.667h213.333v213.333h-213.333v-213.333z" />
<glyph unicode="&#xe974;" glyph-name="hard-drive" d="M938.667 405.333h-853.333c-25.6 0-42.667 17.067-42.667 42.667s17.067 42.667 42.667 42.667h853.333c25.6 0 42.667-17.067 42.667-42.667s-17.067-42.667-42.667-42.667zM853.333 64h-682.667c-72.533 0-128 55.467-128 128v256c0 8.533 0 12.8 4.267 17.067l145.067 294.4c25.6 46.933 68.267 72.533 115.2 72.533h405.333c46.933 0 93.867-25.6 115.2-72.533l145.067-294.4c8.533-4.267 8.533-8.533 8.533-17.067v-256c0-72.533-55.467-128-128-128zM128 439.467v-247.467c0-25.6 17.067-42.667 42.667-42.667h682.667c25.6 0 42.667 17.067 42.667 42.667v247.467l-140.8 285.867c-8.533 12.8-25.6 21.333-38.4 21.333h-409.6c-12.8 0-29.867-8.533-38.4-25.6 0 0 0 0 0 0l-140.8-281.6zM234.667 742.4v0 0zM256 234.667c-12.8 0-21.333 4.267-29.867 12.8s-12.8 17.067-12.8 29.867c0 4.267 0 12.8 4.267 17.067s4.267 8.533 8.533 12.8c4.267 4.267 8.533 8.533 12.8 8.533 8.533 4.267 21.333 4.267 34.133 0 4.267 0 8.533-4.267 12.8-8.533s8.533-8.533 8.533-12.8c4.267-4.267 4.267-12.8 4.267-17.067 0-12.8-4.267-21.333-12.8-29.867s-17.067-12.8-29.867-12.8zM426.667 234.667c-12.8 0-21.333 4.267-29.867 12.8s-12.8 17.067-12.8 29.867c0 4.267 0 12.8 4.267 17.067s4.267 8.533 8.533 12.8c17.067 17.067 42.667 17.067 59.733 0 4.267-4.267 8.533-8.533 8.533-12.8 4.267-4.267 4.267-12.8 4.267-17.067 0-12.8-4.267-21.333-12.8-29.867s-17.067-12.8-29.867-12.8z" />
<glyph unicode="&#xe975;" glyph-name="hash" d="M853.333 533.333h-682.667c-25.6 0-42.667 17.067-42.667 42.667s17.067 42.667 42.667 42.667h682.667c25.6 0 42.667-17.067 42.667-42.667s-17.067-42.667-42.667-42.667zM853.333 277.333h-682.667c-25.6 0-42.667 17.067-42.667 42.667s17.067 42.667 42.667 42.667h682.667c25.6 0 42.667-17.067 42.667-42.667s-17.067-42.667-42.667-42.667zM341.333 21.333c0 0-4.267 0-4.267 0-21.333 4.267-38.4 25.6-38.4 46.933l85.333 768c4.267 25.6 25.6 42.667 46.933 38.4s38.4-25.6 38.4-46.933l-85.333-768c-4.267-21.333-21.333-38.4-42.667-38.4zM597.333 21.333c0 0-4.267 0-4.267 0-21.333 4.267-38.4 25.6-38.4 46.933l85.333 768c4.267 21.333 25.6 38.4 46.933 38.4 21.333-4.267 38.4-25.6 38.4-46.933l-85.333-768c-4.267-21.333-21.333-38.4-42.667-38.4z" />
<glyph unicode="&#xe976;" glyph-name="headphones" d="M896 149.333c-25.6 0-42.667 17.067-42.667 42.667v256c0 187.733-153.6 341.333-341.333 341.333s-341.333-153.6-341.333-341.333v-256c0-25.6-17.067-42.667-42.667-42.667s-42.667 17.067-42.667 42.667v256c0 234.667 192 426.667 426.667 426.667s426.667-192 426.667-426.667v-256c0-25.6-17.067-42.667-42.667-42.667zM810.667 21.333h-42.667c-72.533 0-128 55.467-128 128v128c0 72.533 55.467 128 128 128h128c25.6 0 42.667-17.067 42.667-42.667v-213.333c0-72.533-55.467-128-128-128zM768 320c-25.6 0-42.667-17.067-42.667-42.667v-128c0-25.6 17.067-42.667 42.667-42.667h42.667c25.6 0 42.667 17.067 42.667 42.667v170.667h-85.333zM256 21.333h-42.667c-72.533 0-128 55.467-128 128v213.333c0 25.6 17.067 42.667 42.667 42.667h128c72.533 0 128-55.467 128-128v-128c0-72.533-55.467-128-128-128zM170.667 320v-170.667c0-25.6 17.067-42.667 42.667-42.667h42.667c25.6 0 42.667 17.067 42.667 42.667v128c0 25.6-17.067 42.667-42.667 42.667h-85.333z" />
<glyph unicode="&#xe977;" glyph-name="heart" d="M512 12.8c-12.8 0-21.333 4.267-29.867 12.8l-375.467 375.467c-51.2 51.2-81.067 123.733-81.067 196.267s29.867 145.067 81.067 196.267 119.467 81.067 192 81.067c72.533 0 145.067-29.867 196.267-81.067l17.067-17.067 17.067 17.067c0 0 0 0 0 0 51.2 51.2 119.467 81.067 196.267 81.067v0c72.533 0 145.067-29.867 196.267-81.067v0c106.667-106.667 106.667-285.867 0-392.533l-375.467-375.467c-12.8-8.533-21.333-12.8-34.133-12.8zM298.667 789.333c-46.933 0-98.133-17.067-132.267-55.467-76.8-76.8-76.8-196.267 0-273.067l345.6-345.6 345.6 345.6c38.4 38.4 55.467 85.333 55.467 136.533s-21.333 98.133-55.467 136.533v0c-34.133 34.133-81.067 55.467-132.267 55.467 0 0 0 0 0 0-51.2 0-98.133-21.333-136.533-55.467v0c0 0 0 0 0 0l-42.667-46.933c-17.067-17.067-42.667-17.067-59.733 0l-46.933 46.933c-38.4 38.4-89.6 55.467-140.8 55.467z" />
<glyph unicode="&#xe978;" glyph-name="help-circle" d="M512-21.333c-260.267 0-469.333 209.067-469.333 469.333s209.067 469.333 469.333 469.333 469.333-209.067 469.333-469.333-209.067-469.333-469.333-469.333zM512 832c-213.333 0-384-170.667-384-384s170.667-384 384-384c213.333 0 384 170.667 384 384s-170.667 384-384 384zM507.733 362.667c-17.067 0-34.133 12.8-38.4 29.867-8.533 21.333 4.267 46.933 25.6 55.467 25.6 8.533 98.133 42.667 98.133 89.6 0 38.4-21.333 68.267-55.467 81.067-42.667 17.067-93.867-8.533-110.933-51.2-8.533-21.333-34.133-34.133-55.467-25.6-21.333 0-29.867 25.6-25.6 46.933 29.867 89.6 128 136.533 217.6 102.4 68.267-25.6 115.2-89.6 115.2-162.133 0-110.933-140.8-162.133-157.867-166.4-4.267 0-8.533 0-12.8 0zM512 192c-12.8 0-21.333 4.267-29.867 12.8s-12.8 17.067-12.8 29.867c0 4.267 0 12.8 4.267 17.067s4.267 8.533 8.533 12.8c17.067 17.067 42.667 17.067 59.733 0 4.267-4.267 8.533-8.533 8.533-12.8s4.267-8.533 4.267-17.067 0-12.8-4.267-17.067c-4.267-4.267-4.267-8.533-8.533-12.8-8.533-8.533-17.067-12.8-29.867-12.8z" />
</font>
</defs>
</svg>
